<?xml version="1.0" standalone="no"?>
<!DOCTYPE svg PUBLIC "-//W3C//DTD SVG 1.1//EN" "http://www.w3.org/Graphics/SVG/1.1/DTD/svg11.dtd" >
<svg xmlns="http://www.w3.org/2000/svg">
<metadata></metadata>
<defs>
<font id="bariol_boldbold_italic" horiz-adv-x="993" >
<font-face units-per-em="2048" ascent="1612" descent="-436" />
<missing-glyph horiz-adv-x="462" />
<glyph unicode="&#x2e;&#x2e;&#x2e;" horiz-adv-x="1482" d="M113 88q0 79 42 122.5t119 43.5q113 0 113 -107q0 -79 -41.5 -121t-118.5 -42q-114 0 -114 104zM623 88q0 79 42 122.5t119 43.5q113 0 113 -107q0 -79 -41 -121t-119 -42q-114 0 -114 104zM1135 88q0 79 42 122.5t119 43.5q113 0 113 -107q0 -79 -41.5 -121t-118.5 -42 q-114 0 -114 104z" />
<glyph unicode="&#xfb01;" horiz-adv-x="1073" d="M-160 -330q0 44 35 77.5t80 33.5q174 0 213 221l129 743h-41q-33 0 -55.5 22.5t-22.5 55.5q0 42 34 74.5t77 32.5h41l20 110q14 75 46 137.5t85 114.5t136 81.5t188 29.5q143 0 229 -53q51 -31 51 -86q0 -43 -30.5 -74t-73.5 -31q-10 0 -57 15q-75 26 -152 26 q-84 0 -134.5 -37.5t-62.5 -105.5l-22 -127h473q45 0 71.5 -32.5t18.5 -78.5l-127 -725q-7 -45 -46 -77.5t-85 -32.5t-72 32t-18 78l115 651h-365l-127 -731q-15 -89 -49.5 -163.5t-90 -134.5t-139.5 -94t-190 -34q-35 0 -58.5 24t-23.5 58z" />
<glyph unicode="&#xfb02;" horiz-adv-x="1136" d="M-160 -330q0 44 35 77.5t80 33.5q174 0 213 221l129 743h-41q-33 0 -55.5 22.5t-22.5 55.5q0 42 34 74.5t77 32.5h41l20 110q14 75 46 137.5t85 114.5t136 81.5t188 29.5q106 0 195 -31.5t145 -66.5q51 -34 39 -97l-172 -975q-4 -22 7 -33.5t25 -11.5q38 0 62 -23.5 t24 -60.5q0 -49 -37 -84.5t-94 -35.5q-103 0 -157 50t-54 146q0 22 7 66l88 499h-365l-127 -731q-15 -89 -49.5 -163.5t-90 -134.5t-139.5 -94t-190 -34q-35 0 -58.5 24t-23.5 58zM553 930h362l41 227q-75 43 -184 43q-84 0 -134.5 -37.5t-62.5 -105.5z" />
<glyph unicode="&#xfb03;" horiz-adv-x="1703" d="M-160 -330q0 44 35 77.5t80 33.5q174 0 213 221l129 743h-41q-33 0 -55.5 22.5t-22.5 55.5q0 42 34 74.5t77 32.5h41l20 110q14 75 46 137.5t85 114.5t136 81.5t188 29.5q35 0 58.5 -24t23.5 -58q0 -44 -35 -77.5t-80 -33.5q-82 0 -133.5 -41.5t-63.5 -111.5l-22 -127 h405l21 110q14 75 46 137.5t85 114.5t136 81.5t188 29.5q143 0 229 -53q51 -31 51 -86q0 -43 -30.5 -74t-73.5 -31q-11 0 -58 15q-75 26 -151 26q-84 0 -134.5 -37.5t-62.5 -105.5l-22 -127h473q45 0 71.5 -32.5t18.5 -78.5l-127 -725q-7 -45 -46 -77.5t-85 -32.5t-72 32 t-18 78l114 651h-364l-127 -731q-15 -89 -49.5 -163.5t-90 -134.5t-139.5 -94t-190 -34q-35 0 -58.5 24t-23.5 58q0 44 35 77.5t80 33.5q174 0 213 221l129 743h-408l-127 -731q-15 -89 -49.5 -163.5t-90 -134.5t-139.5 -94t-190 -34q-35 0 -58.5 24t-23.5 58z" />
<glyph unicode="&#xfb04;" horiz-adv-x="1765" d="M-160 -330q0 44 35 77.5t80 33.5q174 0 213 221l129 743h-41q-33 0 -55.5 22.5t-22.5 55.5q0 42 34 74.5t77 32.5h41l20 110q14 75 46 137.5t85 114.5t136 81.5t188 29.5q35 0 58.5 -24t23.5 -58q0 -44 -35 -77.5t-80 -33.5q-82 0 -133.5 -41.5t-63.5 -111.5l-22 -127 h405l21 110q14 75 46 137.5t85 114.5t136 81.5t188 29.5q106 0 195 -31.5t145 -66.5q50 -33 38 -97l-172 -975q-4 -22 7.5 -33.5t25.5 -11.5q38 0 62 -23.5t24 -60.5q0 -49 -37 -84.5t-94 -35.5q-103 0 -157 50t-54 146q0 28 6 66l88 499h-364l-127 -731 q-15 -89 -49.5 -163.5t-90 -134.5t-139.5 -94t-190 -34q-35 0 -58.5 24t-23.5 58q0 44 35 77.5t80 33.5q174 0 213 221l129 743h-408l-127 -731q-15 -89 -49.5 -163.5t-90 -134.5t-139.5 -94t-190 -34q-35 0 -58.5 24t-23.5 58zM1182 930h362l41 227q-75 43 -184 43 q-84 0 -134.5 -37.5t-62.5 -105.5z" />
<glyph horiz-adv-x="2048" />
<glyph horiz-adv-x="2048" />
<glyph unicode="&#xd;" horiz-adv-x="2048" />
<glyph unicode=" "  horiz-adv-x="462" />
<glyph unicode="&#x09;" horiz-adv-x="462" />
<glyph unicode="&#xa0;" horiz-adv-x="462" />
<glyph unicode="!" horiz-adv-x="434" d="M100 88q0 79 42.5 122.5t119.5 43.5q113 0 113 -107q0 -79 -41.5 -121t-118.5 -42q-115 0 -115 104zM211 465l106 815q14 115 148 115q130 0 104 -115l-182 -815q-8 -35 -33.5 -56.5t-66.5 -21.5q-44 0 -62.5 21t-13.5 57z" />
<glyph unicode="&#x22;" horiz-adv-x="598" d="M266 983l39 328q10 84 113 84q101 0 82 -84l-76 -328q-16 -74 -92 -74q-75 0 -66 74zM522 983l39 328q10 84 113 84q101 0 82 -84l-76 -328q-16 -74 -92 -74q-75 0 -66 74z" />
<glyph unicode="#" horiz-adv-x="1169" d="M178 467q0 42 34 74t77 32h94l63 195h-75q-33 0 -54.5 22.5t-21.5 55.5q0 43 32.5 74.5t75.5 31.5h105l102 303q12 35 44 57.5t69 22.5t60.5 -20.5t23.5 -54.5q0 -22 -8 -43l-88 -265h161l103 303q12 35 43.5 57.5t68.5 22.5t60.5 -20.5t23.5 -54.5q0 -22 -8 -43 l-88 -265h76q35 0 56.5 -22.5t21.5 -55.5q0 -42 -34 -74t-77 -32h-106l-66 -195h90q33 0 54.5 -22t21.5 -55q0 -43 -32.5 -75t-75.5 -32h-119l-113 -332q-13 -35 -41.5 -57.5t-68.5 -22.5q-38 0 -60 23t-22 59q0 22 12 50l94 280h-166l-112 -332q-13 -35 -42 -57.5 t-69 -22.5q-38 0 -60 23t-22 59q0 20 12 52l95 278h-66q-33 0 -55.5 22.5t-22.5 55.5zM582 573h166l63 195h-164z" />
<glyph unicode="$" horiz-adv-x="1173" d="M106 281q0 44 32.5 76t76.5 32q52 0 88 -45q59 -70 141.5 -113t182.5 -43q148 0 230.5 55t82.5 156q0 46 -27.5 82t-73 59.5t-103 47.5t-118 44t-118 51t-103 67t-73 93t-27.5 128q0 164 116 285t332 145l21 117q8 41 39 68.5t74 27.5q40 0 62.5 -28t14.5 -68l-20 -119 q118 -20 209.5 -76.5t126.5 -124.5q12 -24 12 -49q0 -44 -32 -76.5t-76 -32.5q-45 0 -82 37q-54 50 -130.5 83.5t-158.5 33.5q-132 0 -198 -53.5t-66 -126.5q0 -49 35.5 -87t92 -63.5t124.5 -49.5t136.5 -55t125 -69.5t92 -102t35.5 -145.5q0 -197 -126.5 -321.5 t-369.5 -145.5l-20 -112q-8 -40 -40.5 -68t-72.5 -28q-39 0 -62 28.5t-16 67.5l21 117q-137 20 -239.5 95t-139.5 161q-11 22 -11 45z" />
<glyph unicode="%" horiz-adv-x="1564" d="M254 997q0 63 12 120t40.5 111t71 93t108.5 62.5t149 23.5q133 0 199.5 -70.5t66.5 -187.5q0 -63 -12.5 -120t-42 -111t-72.5 -93t-109.5 -62.5t-148.5 -23.5q-132 0 -197 71t-65 187zM371 80q0 33 18 57l860 1217q30 41 80 41q40 0 68 -28.5t28 -68.5q0 -28 -18 -57 l-860 -1214q-30 -43 -80 -43q-40 0 -68 28t-28 68zM442 1030q0 -119 105 -119q46 0 80 19t52 50.5t26 65t8 68.5q0 54 -26.5 87.5t-82.5 33.5q-43 0 -75 -16t-48 -38t-25.5 -53t-11.5 -52.5t-2 -45.5zM907 231q0 63 12 120t40.5 111t71 93t108.5 62.5t149 23.5 q133 0 199.5 -70.5t66.5 -187.5q0 -63 -12.5 -120t-42 -111t-72.5 -93t-109.5 -62.5t-148.5 -23.5q-132 0 -197 71t-65 187zM1096 264q0 -119 104 -119q46 0 80 19t52 50.5t26 65t8 68.5q0 54 -26.5 87.5t-82.5 33.5q-161 0 -161 -205z" />
<glyph unicode="&#x26;" horiz-adv-x="1626" d="M170 418q0 92 31.5 169.5t85.5 130t119 87t137 49.5q-62 33 -99.5 92t-37.5 139q0 101 58 176t147 110.5t194 35.5q137 0 222 -49.5t124 -130.5q14 -31 14 -53q0 -43 -30.5 -74t-73.5 -31q-52 0 -84 41q-37 50 -78 73t-104 23q-72 0 -116 -37.5t-44 -99.5 q0 -75 52.5 -115.5t117.5 -40.5q39 0 60.5 -24.5t21.5 -57.5q0 -39 -31 -74.5t-86 -35.5q-77 0 -143 -17t-119 -50.5t-83 -91t-30 -132.5q0 -109 94.5 -183.5t241.5 -74.5q372 0 375 268q0 49 -16 95q-62 0 -62 -56q0 -41 -29.5 -70.5t-70.5 -29.5q-42 0 -71.5 31.5 t-29.5 89.5q0 99 90.5 167t268.5 68q84 0 121.5 4t51 13.5t13.5 31.5q0 4 -2 19.5t-2 25.5q0 40 27.5 61t64.5 21q52 0 81.5 -40.5t29.5 -102.5q0 -100 -60.5 -158t-220.5 -69q19 -62 19 -121q0 -207 -161 -328t-433 -121q-245 0 -395 124t-150 323z" />
<glyph unicode="'" horiz-adv-x="342" d="M266 983l39 328q10 84 113 84q101 0 82 -84l-76 -328q-16 -74 -92 -74q-75 0 -66 74z" />
<glyph unicode="(" horiz-adv-x="645" d="M145 180q0 162 45 426q47 284 108.5 457t154 276.5t237.5 161.5q25 10 45 10q41 0 71 -29.5t30 -70.5q0 -29 -17 -55t-49 -39q-66 -28 -117.5 -76t-86 -106.5t-63.5 -146.5t-47.5 -173t-39.5 -209q-54 -309 -54 -420q0 -115 28.5 -187t103.5 -108q25 -11 41 -35.5 t16 -54.5q0 -41 -29.5 -70.5t-70.5 -29.5q-22 0 -45 10q-130 59 -195.5 172t-65.5 297z" />
<glyph unicode=")" horiz-adv-x="645" d="M25 -199q0 30 16.5 56t48.5 39q55 23 99.5 58.5t78.5 86t59.5 105.5t47 133t37 151.5t32.5 175.5q54 309 54 420q0 116 -28 187.5t-103 107.5q-25 11 -41.5 35.5t-16.5 54.5q0 41 30 70.5t71 29.5q22 0 45 -10q130 -59 195 -172t65 -297q0 -162 -45 -426 q-47 -284 -108.5 -457t-154 -276.5t-237.5 -161.5q-25 -10 -45 -10q-41 0 -70.5 29.5t-29.5 70.5z" />
<glyph unicode="*" horiz-adv-x="757" d="M274 1177.5q-9 21.5 0 51.5q16 61 74 43l182 -53l-6 182q-3 57 64 57q66 0 63 -57l-6 -182l182 53q58 18 74 -43q9 -30 0 -51.5t-41 -28.5l-180 -31l117 -160q34 -46 -17 -81q-53 -37 -86 14l-106 168l-107 -168q-33 -51 -86 -14q-50 35 -16 81l117 160l-181 31 q-32 7 -41 28.5z" />
<glyph unicode="+" horiz-adv-x="929" d="M78 434q0 43 33 75t79 32h273l47 272q8 41 40.5 69.5t76.5 28.5q40 0 63.5 -29t16.5 -69l-48 -272h273q33 0 55.5 -24t22.5 -58q0 -43 -33.5 -75t-77.5 -32h-274l-47 -270q-8 -41 -39.5 -69.5t-75.5 -28.5q-42 0 -66 29t-16 69l47 270h-270q-35 0 -57.5 24t-22.5 58z" />
<glyph unicode="," horiz-adv-x="460" d="M16 -305q0 18 19 37q65 65 93 107t28 95q0 30 -20.5 82t-20.5 82q0 73 41.5 114.5t117.5 41.5q113 0 113 -107q0 -77 -27.5 -153t-74 -138t-94.5 -109.5t-101 -86.5q-13 -10 -29 -10q-19 0 -32 13t-13 32z" />
<glyph unicode="-" horiz-adv-x="774" d="M178 504q0 43 33.5 74.5t79.5 31.5h409q33 0 55.5 -24t22.5 -58q0 -43 -33 -74.5t-77 -31.5h-410q-35 0 -57.5 24t-22.5 58z" />
<glyph unicode="." horiz-adv-x="460" d="M113 88q0 79 42 122.5t119 43.5q113 0 113 -107q0 -79 -41.5 -121t-118.5 -42q-114 0 -114 104z" />
<glyph unicode="/" horiz-adv-x="864" d="M35 -90q0 26 14 55l807 1518q30 55 96 55q46 0 78.5 -32.5t32.5 -78.5q0 -28 -16 -59l-801 -1505q-34 -64 -101 -64q-46 0 -78 32.5t-32 78.5z" />
<glyph unicode="0" horiz-adv-x="1251" d="M184 426q0 92 10 184t33.5 190t58.5 184.5t90 165t123.5 135t162.5 89.5t204 33q222 0 332.5 -112t110.5 -343q0 -92 -10 -184t-33.5 -190t-58.5 -184.5t-90 -165t-123.5 -135t-162.5 -89.5t-204 -33q-222 0 -332.5 112t-110.5 343zM422 465q0 -149 56.5 -219t176.5 -70 q84 0 151.5 35.5t111.5 97t75.5 135t47.5 160t23 161t7 148.5q0 149 -56.5 219t-176.5 70q-84 0 -151.5 -35.5t-111.5 -97t-75.5 -135t-47.5 -160t-23 -161t-7 -148.5z" />
<glyph unicode="1" horiz-adv-x="724" d="M240 1085q0 31 16 58.5t45 42.5l334 184q45 25 76 25q47 0 76 -35t20 -82l-207 -1178q-9 -48 -48 -82t-89 -34t-77 34t-19 82l172 967l-123 -74q-33 -20 -64 -20q-46 0 -79 33t-33 79z" />
<glyph unicode="2" horiz-adv-x="1132" d="M96 90q15 98 72.5 183t137.5 146.5t173 118t183.5 108.5t165 106t120 122t45.5 146t-54.5 130t-152.5 52q-88 0 -150.5 -43t-115.5 -119q-33 -49 -90 -49q-44 0 -76 32.5t-32 76.5q0 33 20 63q70 114 193.5 179t287.5 65q194 0 301 -94.5t107 -255.5q0 -91 -36 -175.5 t-95.5 -148.5t-135.5 -124t-155 -104.5t-156 -88t-137.5 -76.5t-99 -67.5t-41.5 -63.5h629q38 0 63 -26t25 -64q0 -47 -38.5 -83t-86.5 -36h-783q-39 0 -66.5 26.5t-21.5 63.5z" />
<glyph unicode="3" horiz-adv-x="1153" d="M111 262q0 44 32 76.5t76 32.5q54 0 94 -54q51 -69 114.5 -104t158.5 -35q157 0 237 78.5t80 216.5q0 189 -207 189h-127q-41 0 -66.5 25.5t-25.5 64.5q0 50 41 88l346 329h-411q-38 0 -63 26t-25 65q0 48 36 83t88 35h656q38 0 63 -26t25 -64q0 -48 -41 -84l-358 -338 q162 -19 234.5 -115.5t72.5 -238.5q0 -256 -148.5 -397.5t-443.5 -141.5q-150 0 -262 70.5t-166 173.5q-10 20 -10 45z" />
<glyph unicode="4" horiz-adv-x="1148" d="M133 385q0 38 29 72l782 882q47 54 107 54q47 0 76 -35t20 -82l-135 -772h71q38 0 63 -26t25 -64q0 -47 -38 -83t-86 -36h-72l-35 -195q-8 -49 -45.5 -82.5t-91.5 -33.5q-52 0 -78 33.5t-18 82.5l34 195h-520q-38 0 -63 26t-25 64zM455 504h323l82 471z" />
<glyph unicode="5" horiz-adv-x="1179" d="M109 301q0 44 32 76.5t76 32.5q29 0 56.5 -16t41.5 -46q43 -90 109.5 -131t175.5 -41q146 0 239 89.5t93 252.5q0 110 -62.5 167.5t-169.5 57.5q-91 0 -150.5 -18t-123.5 -63q-59 -41 -107 -41q-40 0 -66 27t-26 67q0 19 13 49l194 530q14 38 45.5 61t73.5 23h614 q38 0 62 -25.5t24 -64.5q0 -47 -37.5 -83t-85.5 -36h-534l-100 -268q100 47 241 47q203 0 317.5 -97.5t114.5 -291.5q0 -289 -163.5 -438.5t-442.5 -149.5q-92 0 -170.5 26.5t-132 70.5t-89.5 92.5t-56 101.5q-6 18 -6 39z" />
<glyph unicode="6" horiz-adv-x="1204" d="M180 440q0 160 25.5 302.5t79.5 265t133 211t192.5 138.5t251.5 50q128 0 222.5 -37.5t134.5 -91.5q22 -31 22 -66q0 -44 -31 -75t-75 -31q-34 0 -66 22q-106 74 -223 74q-151 0 -258.5 -115t-132.5 -292q62 54 153 88.5t187 34.5q198 0 306.5 -98.5t108.5 -282.5 q0 -175 -76.5 -304.5t-210.5 -195.5t-309 -66q-215 0 -324.5 124t-109.5 345zM410 428q0 -121 57.5 -185.5t167.5 -64.5q150 0 244 85t94 235q0 103 -63.5 158t-166.5 55q-100 0 -182 -46.5t-141 -125.5q-10 -65 -10 -111z" />
<glyph unicode="7" horiz-adv-x="1038" d="M219 78q8 108 52 216t108 197.5t139.5 174t151.5 156.5t139.5 134t107.5 117.5t52 95.5h-621q-38 0 -63 26t-25 65q0 48 36 83t89 35h750q38 0 62 -25.5t24 -64.5q0 -90 -37.5 -174.5t-98.5 -156t-136 -143.5t-154 -149.5t-148 -159.5t-122.5 -188.5t-73.5 -222.5 q-7 -47 -46.5 -78.5t-87.5 -31.5q-44 0 -72.5 26.5t-25.5 67.5z" />
<glyph unicode="8" horiz-adv-x="1177" d="M135 336q0 144 76.5 254t224.5 164q-54 32 -88.5 93t-34.5 136q0 192 135 308t375 116q191 0 297.5 -81t106.5 -230q0 -121 -64 -209t-157 -133q178 -94 178 -285q0 -229 -153 -363.5t-435 -134.5q-218 0 -339.5 94.5t-121.5 270.5zM373 373q0 -95 65 -145t180 -50 q147 0 238.5 72t91.5 203q0 91 -64.5 141.5t-181.5 50.5q-152 0 -240.5 -71.5t-88.5 -200.5zM545 997q0 -73 50 -110t142 -37q118 0 187 54t69 153q0 70 -49.5 107.5t-142.5 37.5q-120 0 -188 -54t-68 -151z" />
<glyph unicode="9" horiz-adv-x="1204" d="M207 166q0 44 31 75t75 31q34 0 66 -22q106 -74 223 -74q151 0 258.5 115.5t132.5 292.5q-62 -54 -153 -88.5t-187 -34.5q-198 0 -306.5 98.5t-108.5 282.5q0 175 76.5 304t210.5 195t309 66q215 0 324.5 -124t109.5 -345q0 -160 -25.5 -302.5t-79.5 -265t-133 -211 t-192.5 -138.5t-251.5 -50q-128 0 -222.5 37.5t-134.5 91.5q-22 31 -22 66zM475 881q0 -103 63.5 -158t166.5 -55q100 0 182 46.5t141 125.5q10 65 10 110q0 121 -57.5 185.5t-167.5 64.5q-150 0 -244 -84.5t-94 -234.5z" />
<glyph unicode=":" horiz-adv-x="460" d="M113 88q0 79 42 122.5t119 43.5q113 0 113 -107q0 -79 -41.5 -121t-118.5 -42q-114 0 -114 104zM233 768q0 79 42.5 122.5t119.5 43.5q113 0 113 -107q0 -79 -41.5 -121t-118.5 -42q-115 0 -115 104z" />
<glyph unicode=";" horiz-adv-x="460" d="M16 -305q0 18 19 37q65 65 93 107t28 95q0 30 -20.5 82t-20.5 82q0 73 41.5 114.5t117.5 41.5q113 0 113 -107q0 -77 -27.5 -153t-74 -138t-94.5 -109.5t-101 -86.5q-13 -10 -29 -10q-19 0 -32 13t-13 32zM233 768q0 79 42.5 122.5t119.5 43.5q113 0 113 -107 q0 -79 -41.5 -121t-118.5 -42q-115 0 -115 104z" />
<glyph unicode="&#x3c;" horiz-adv-x="743" d="M84 467q0 57 61 96l603 412q27 18 57 18q40 0 69 -29t29 -69q0 -53 -47 -84l-520 -340l389 -332q33 -26 33 -71q0 -40 -29.5 -69.5t-69.5 -29.5q-34 0 -61 23l-481 407q-33 29 -33 68z" />
<glyph unicode="=" horiz-adv-x="929" d="M45 256q0 42 35 74t78 32h741q33 0 55.5 -23.5t22.5 -57.5q0 -42 -34 -74.5t-77 -32.5h-741q-35 0 -57.5 24t-22.5 58zM109 610q0 42 34 74.5t76 32.5h742q35 0 57 -24t22 -58q0 -42 -34.5 -74.5t-77.5 -32.5h-742q-33 0 -55 24t-22 58z" />
<glyph unicode="&#x3e;" horiz-adv-x="743" d="M10 68q0 53 47 84l521 340l-390 331q-32 26 -32 72q0 40 29 69t69 29q35 0 61 -22l482 -408q32 -28 32 -67q0 -58 -61 -97l-602 -411q-28 -19 -57 -19q-40 0 -69.5 29.5t-29.5 69.5z" />
<glyph unicode="?" horiz-adv-x="927" d="M221 1018q0 167 133.5 278t352.5 111q178 0 275 -77t97 -218q0 -82 -26.5 -149.5t-69 -112t-94 -81t-103.5 -62.5t-94.5 -49t-69 -48t-26.5 -53q0 -23 10 -53t10 -49q0 -45 -32 -75t-78 -30q-60 0 -102 48t-42 124q0 62 27 113.5t70 87.5t95.5 68t105 61t95.5 59.5t70 72 t27 89.5q0 63 -46.5 98t-133.5 35q-89 0 -148.5 -44t-74.5 -128q-9 -52 -47.5 -82t-86.5 -30q-41 0 -67.5 28t-26.5 68zM299 88q0 79 42.5 122.5t119.5 43.5q112 0 112 -107q0 -79 -41 -121t-118 -42q-115 0 -115 104z" />
<glyph unicode="@" horiz-adv-x="1648" d="M127 213q0 211 63 378t179.5 277.5t281 169t367.5 58.5q289 0 461 -147.5t172 -418.5q0 -73 -14.5 -145.5t-48.5 -145.5t-83.5 -128.5t-127 -90t-171.5 -34.5q-86 0 -133.5 42t-54.5 99q-24 -31 -43.5 -51t-52.5 -43.5t-77 -35t-100 -11.5q-111 0 -172 74t-61 196 q0 218 120.5 359t301.5 141q100 0 162 -58q26 47 82 47q37 0 57 -24.5t14 -61.5l-78 -421q-9 -45 10.5 -68t55.5 -23q103 0 163 95t60 264q0 203 -125 310.5t-346 107.5q-151 0 -273 -42t-211.5 -124.5t-138.5 -214t-49 -303.5q0 -226 123.5 -341.5t345.5 -115.5 q260 0 437 96q24 12 47 12q32 0 52.5 -21.5t20.5 -53.5q0 -57 -61 -90q-224 -115 -524 -115t-465.5 156.5t-165.5 445.5zM688 272q0 -62 29.5 -102.5t81.5 -40.5q87 0 145.5 65t79.5 179l37 194q-58 39 -121 39q-107 0 -179.5 -89t-72.5 -245z" />
<glyph unicode="A" horiz-adv-x="1277" d="M55 100q0 30 19 62l690 1157q42 76 121 76q41 0 65.5 -23.5t30.5 -50.5l274 -1186q5 -15 5 -35q0 -47 -35 -81.5t-82 -34.5q-92 0 -113 86l-69 288h-506l-181 -315q-34 -59 -102 -59q-51 0 -84 34t-33 82zM573 575h347l-97 431z" />
<glyph unicode="B" horiz-adv-x="1163" d="M145 119l201 1141q9 50 49.5 84t89.5 34h369q189 0 277 -82t88 -213q0 -241 -209 -340q84 -34 124 -105.5t40 -166.5q0 -217 -127 -344t-377 -127h-428q-50 0 -78 34q-22 26 -21 62q0 11 2 23zM399 213h287q126 0 184 66.5t58 175.5q0 77 -43 118t-129 41h-287zM506 815 h250q109 0 163 60t54 153q0 137 -156 137h-250z" />
<glyph unicode="C" horiz-adv-x="1310" d="M172 502q0 277 92 480.5t270 314t424 110.5q174 0 289 -67t166 -169q12 -27 12 -51q0 -46 -32 -78t-78 -32q-58 0 -86 41q-53 72 -125.5 107.5t-181.5 35.5q-110 0 -197 -37.5t-143 -100.5t-93.5 -151t-53 -182.5t-15.5 -200.5q0 -168 82.5 -252t240.5 -84q188 0 340 133 q54 46 95 46q45 0 77.5 -31.5t32.5 -73.5q0 -47 -33 -84q-90 -97 -236 -151t-312 -54q-249 0 -392 138t-143 393z" />
<glyph unicode="D" horiz-adv-x="1251" d="M145 119l201 1141q9 50 49.5 84t89.5 34h277q269 0 416 -133.5t147 -410.5q0 -403 -207.5 -618.5t-582.5 -215.5h-293q-50 0 -78 34q-22 26 -21 62q0 11 2 23zM399 213h158q249 0 383.5 156t134.5 446q0 185 -89 267.5t-261 82.5h-158z" />
<glyph unicode="E" horiz-adv-x="1071" d="M145 119l201 1141q9 50 49.5 84t89.5 34h639q39 0 64.5 -25.5t25.5 -64.5q0 -50 -38.5 -86.5t-88.5 -36.5h-520l-65 -366h387q38 0 63 -26t25 -64q0 -47 -38.5 -83t-86.5 -36h-387l-66 -377h543q39 0 63.5 -25.5t24.5 -64.5q0 -51 -38 -87t-89 -36h-661q-50 0 -78 34 q-22 26 -21 62q0 11 2 23z" />
<glyph unicode="F" horiz-adv-x="1071" d="M141 102l203 1158q9 50 49.5 84t89.5 34h639q39 0 64.5 -25.5t25.5 -64.5q0 -50 -38.5 -86.5t-88.5 -36.5h-520l-65 -379h387q38 0 62 -25.5t24 -64.5q0 -47 -37.5 -82.5t-85.5 -35.5h-387l-84 -476q-9 -51 -47.5 -84.5t-93.5 -33.5q-50 0 -78 34q-21 25 -21 60 q0 12 2 24z" />
<glyph unicode="G" horiz-adv-x="1382" d="M172 502q0 277 92 480.5t270 314t424 110.5q174 0 289 -67t166 -169q12 -27 12 -51q0 -46 -32 -78t-78 -32q-58 0 -86 41q-53 72 -125.5 107.5t-181.5 35.5q-110 0 -197 -37.5t-143 -100.5t-93.5 -151t-53 -182.5t-15.5 -200.5q0 -338 323 -338q216 0 359 117l41 229 h-279q-38 0 -63 26t-25 65q0 47 38.5 82.5t86.5 35.5h397q43 0 72 -32q22 -26 22 -59q0 -8 -1 -17l-58 -328q-11 -63 -53 -108q-93 -99 -251.5 -161.5t-321.5 -62.5q-249 0 -392 138t-143 393z" />
<glyph unicode="H" horiz-adv-x="1306" d="M141 102l207 1174q9 50 49.5 84.5t89.5 34.5q50 0 79 -35q22 -27 22 -62q0 -11 -2 -22l-82 -463h586l81 463q9 50 50 84.5t90 34.5q49 -1 77 -35q22 -27 23 -63q0 -10 -2 -21l-207 -1174q-9 -49 -50 -83.5t-91 -34.5q-49 0 -77 34q-21 26 -21 61q0 11 2 23l86 494h-586 l-86 -494q-9 -49 -50 -83.5t-91 -34.5t-78 34q-21 26 -21 61q0 11 2 23z" />
<glyph unicode="I" horiz-adv-x="483" d="M141 102l207 1174q9 50 49.5 84.5t89.5 34.5q50 0 79 -35q22 -27 22 -62q0 -11 -2 -22l-207 -1174q-9 -49 -50 -83.5t-91 -34.5t-78 34q-21 26 -21 61q0 11 2 23z" />
<glyph unicode="J" horiz-adv-x="882" d="M51 123q0 44 31.5 75t75.5 31q20 0 61 -14q77 -27 148 -27q98 0 154.5 65t76.5 177l150 846q9 50 49.5 84.5t89.5 34.5q50 0 79 -35q21 -27 21 -61q0 -11 -2 -23l-149 -846q-15 -82 -39.5 -148.5t-66 -125t-96.5 -98.5t-132.5 -62.5t-173.5 -22.5q-68 0 -132.5 17 t-101.5 47q-43 35 -43 86z" />
<glyph unicode="K" horiz-adv-x="1138" d="M141 102l207 1174q9 50 49.5 84.5t89.5 34.5q49 -1 78 -35q23 -27 23 -63q0 -10 -2 -21l-84 -469l579 553q38 35 84 35q47 0 81 -34t34 -81q0 -53 -47 -94l-467 -408l352 -628q12 -21 12 -52q0 -47 -33.5 -80.5t-80.5 -33.5q-34 0 -60.5 17.5t-37.5 37.5l-326 586 l-143 -129l-70 -394q-9 -49 -50 -83.5t-91 -34.5t-78 34q-21 26 -21 61q0 11 2 23z" />
<glyph unicode="L" horiz-adv-x="1005" d="M143 115l205 1161q9 50 49.5 84.5t89.5 34.5q50 0 79 -35q22 -27 22 -62q0 -11 -2 -22l-187 -1055h486q43 0 69.5 -26.5t26.5 -67.5q0 -54 -39 -90.5t-96 -36.5h-606q-50 0 -78 32q-21 24 -21 59q0 12 2 24z" />
<glyph unicode="M" horiz-adv-x="1546" d="M131 100l207 1178q9 49 46 83t89 34q67 0 92 -66l295 -778l574 778q48 66 114 66q48 0 78 -35q25 -28 24 -65q0 -8 -1 -17l-209 -1178q-7 -47 -48.5 -81.5t-88.5 -34.5t-76 34q-23 27 -23 62q0 10 2 20l133 746l-424 -572q-42 -57 -108 -57q-32 0 -57 15t-35 42l-221 572 l-132 -746q-9 -47 -49.5 -81.5t-87.5 -34.5t-75 34q-21 26 -21 60q0 11 2 22z" />
<glyph unicode="N" horiz-adv-x="1275" d="M131 100l207 1178q9 49 46 83t89 34q61 0 86 -49l453 -879l143 811q7 47 48.5 82t88.5 35t76 -35q23 -27 23 -62q0 -10 -2 -20l-209 -1178q-7 -47 -48.5 -81.5t-89.5 -34.5q-29 0 -52 14t-34 37l-448 885l-146 -820q-7 -47 -48.5 -81.5t-88.5 -34.5t-75 34q-21 26 -21 60 q0 11 2 22z" />
<glyph unicode="O" horiz-adv-x="1437" d="M172 487q0 200 51.5 367.5t149.5 291t250 192.5t344 69q265 0 403.5 -130t138.5 -386q0 -200 -51.5 -367.5t-149 -291t-249.5 -192.5t-344 -69q-265 0 -404 130t-139 386zM420 522q0 -338 332 -338q108 0 195.5 39t145 104t96.5 153t56 181.5t17 194.5q0 338 -332 338 q-108 0 -195.5 -39t-145 -104t-96.5 -153t-56 -181.5t-17 -194.5z" />
<glyph unicode="P" horiz-adv-x="1130" d="M141 102l203 1158q9 50 49.5 84t89.5 34h391q165 0 266 -87t101 -253q0 -112 -41 -207t-111 -159t-164 -99.5t-198 -35.5h-272l-76 -435q-9 -49 -50 -83.5t-91 -34.5t-78 34q-21 26 -21 61q0 11 2 23zM492 750h253q111 0 178.5 71t67.5 180q0 79 -45 121.5t-127 42.5 h-254z" />
<glyph unicode="Q" horiz-adv-x="1437" d="M172 487q0 200 51.5 367.5t149.5 291t250 192.5t344 69q265 0 403.5 -130t138.5 -386q0 -278 -97 -490t-282 -323q43 -9 88.5 -41.5t63.5 -63.5q14 -23 14 -55q0 -47 -34.5 -82t-81.5 -35q-50 0 -84 37q-47 50 -86.5 76t-111 41.5t-183.5 15.5q-265 0 -404 130t-139 386z M420 522q0 -338 332 -338q108 0 195.5 39t145 104t96.5 153t56 181.5t17 194.5q0 338 -332 338q-108 0 -195.5 -39t-145 -104t-96.5 -153t-56 -181.5t-17 -194.5z" />
<glyph unicode="R" horiz-adv-x="1146" d="M141 102l203 1158q9 50 49.5 84t89.5 34h391q174 0 269.5 -101.5t95.5 -256.5q0 -112 -46.5 -215.5t-138 -176.5t-208.5 -85l237 -385q15 -24 15 -56q0 -49 -34.5 -83.5t-84.5 -34.5q-32 0 -59.5 16t-40.5 39l-279 489h-145l-76 -426q-9 -49 -50 -83.5t-91 -34.5t-78 34 q-21 26 -21 61q0 11 2 23zM489 737h277q105 0 165 78t60 178q0 76 -37.5 124t-117.5 48h-271z" />
<glyph unicode="S" horiz-adv-x="1173" d="M106 281q0 44 32.5 76t76.5 32q52 0 88 -45q59 -70 141.5 -113t182.5 -43q148 0 230.5 55t82.5 156q0 46 -27.5 82t-73 59.5t-103 47.5t-118 44t-118 51t-103 67t-73 93t-27.5 128q0 88 34.5 165t100 138.5t171.5 97t239 35.5q146 0 267 -63t163 -146q12 -24 12 -49 q0 -44 -32 -76.5t-76 -32.5q-45 0 -82 37q-54 50 -130.5 83.5t-158.5 33.5q-132 0 -198 -53.5t-66 -126.5q0 -49 35.5 -87t92 -63.5t124.5 -49.5t136.5 -55t125 -69.5t92 -102t35.5 -145.5q0 -217 -151.5 -344t-442.5 -127q-115 0 -217 42.5t-164 101t-90 121.5 q-11 22 -11 45z" />
<glyph unicode="T" horiz-adv-x="1159" d="M266 1260q0 47 38.5 82.5t86.5 35.5h864q38 0 63 -26t25 -64q0 -47 -38 -83t-86 -36h-314l-188 -1067q-9 -50 -49.5 -84t-89.5 -34q-50 0 -79 34q-22 26 -22 62q0 11 2 22l189 1067h-314q-38 0 -63 26t-25 65z" />
<glyph unicode="U" horiz-adv-x="1267" d="M195 334q0 52 10 117l143 825q9 50 49.5 84.5t89.5 34.5q50 0 79 -35q22 -27 22 -62q0 -11 -2 -22l-146 -825q-6 -35 -6 -76q0 -195 238 -195q275 0 325 271l146 825q9 50 49.5 84.5t89.5 34.5q50 0 78 -35q22 -27 22 -61q0 -11 -2 -23l-145 -825q-11 -64 -28 -117 t-45.5 -110.5t-72 -100.5t-103 -78.5t-144.5 -54.5t-189 -19q-125 0 -216 29t-142.5 80.5t-75.5 114.5t-24 139z" />
<glyph unicode="V" horiz-adv-x="1245" d="M262 1276q0 50 35 84.5t84 34.5q45 0 76.5 -28t38.5 -60l192 -926l520 948q14 27 41.5 46.5t65.5 19.5q49 0 84 -34.5t35 -84.5q0 -31 -19 -64l-672 -1153q-42 -75 -122 -75q-81 0 -99 75l-256 1186q-4 16 -4 31z" />
<glyph unicode="W" horiz-adv-x="1716" d="M262 1278q0 47 35 82t82 35t79.5 -32t37.5 -73l94 -837l385 856q41 86 129 86q39 0 67.5 -23.5t32.5 -62.5l82 -856l395 874q12 26 38.5 47t68.5 21q47 0 82 -35t35 -82q0 -25 -15 -55l-557 -1157q-40 -82 -127 -82q-41 0 -68 24.5t-32 63.5l-88 839l-383 -839 q-40 -88 -129 -88q-39 0 -66 23t-32 59l-142 1165q-4 36 -4 47z" />
<glyph unicode="X" horiz-adv-x="1110" d="M39 102q0 40 33 82l475 535l-264 504q-13 23 -13 53q0 50 35 84.5t84 34.5q35 0 63.5 -18.5t41.5 -45.5l217 -424l370 447q35 41 90 41q49 0 84 -34.5t35 -84.5q0 -45 -30 -80l-445 -504l279 -532q14 -28 14 -58q0 -49 -34.5 -83.5t-84.5 -34.5q-33 0 -60.5 16t-41.5 43 l-236 467l-403 -485q-35 -41 -90 -41q-50 0 -84.5 33.5t-34.5 84.5z" />
<glyph unicode="Y" horiz-adv-x="1134" d="M262 1276q0 50 35 84.5t84 34.5q74 0 102 -60l236 -481l389 492q40 49 96 49q50 0 84.5 -34.5t34.5 -84.5q0 -40 -31 -80l-495 -567l-92 -527q-9 -51 -47.5 -84.5t-92.5 -33.5q-53 0 -80 34q-20 26 -20 60q0 12 2 24l92 527l-287 598q-10 20 -10 49z" />
<glyph unicode="Z" horiz-adv-x="1107" d="M47 90q0 43 35 82l864 997h-565q-38 0 -62 26t-24 65q0 48 35 83t88 35h774q38 0 63 -26t25 -64q0 -39 -31 -74l-862 -1001h625q39 0 64.5 -25.5t25.5 -64.5q0 -50 -38.5 -86.5t-88.5 -36.5h-838q-39 0 -64.5 25.5t-25.5 64.5z" />
<glyph unicode="[" horiz-adv-x="579" d="M88 -193l283 1598q8 46 42.5 76t88.5 30h192q35 0 57.5 -23.5t22.5 -57.5q0 -44 -35 -77.5t-80 -33.5h-84l-249 -1425h84q35 0 57 -24t22 -58q0 -44 -34.5 -77.5t-79.5 -33.5h-193q-49 0 -75.5 30t-18.5 76z" />
<glyph unicode="\" horiz-adv-x="864" d="M303 1427q0 46 33.5 78.5t79.5 32.5q40 0 69 -22.5t35 -59.5l273 -1511q4 -20 4 -35q0 -47 -32.5 -79t-82.5 -32q-39 0 -67.5 25t-34.5 63l-273 1506q-4 20 -4 34z" />
<glyph unicode="]" horiz-adv-x="579" d="M18 -217q0 44 35 77.5t80 33.5h84l252 1425h-84q-35 0 -58.5 24t-23.5 58q0 46 35.5 78t79.5 32h192q49 0 76 -30.5t19 -75.5l-281 -1598q-7 -46 -45 -76t-88 -30h-193q-35 0 -57.5 24t-22.5 58z" />
<glyph unicode="^" horiz-adv-x="995" d="M215 768q0 32 21 59l419 537q38 51 90 51q57 0 76 -51l221 -563q7 -17 7 -33q0 -38 -28.5 -66t-66.5 -28q-66 0 -88 61l-159 418l-322 -440q-27 -39 -76 -39q-38 0 -66 28t-28 66z" />
<glyph unicode="_" horiz-adv-x="862" d="M-55 -170q0 42 34.5 74.5t77.5 32.5h729q33 0 55.5 -24t22.5 -58q0 -42 -33.5 -74.5t-76.5 -32.5h-729q-35 0 -57.5 24t-22.5 58z" />
<glyph unicode="`" horiz-adv-x="786" d="M432.5 1291.5q3.5 38.5 40.5 68.5q42 31 74.5 30t50.5 -28l141 -219q31 -50 -14 -90q-44 -40 -84 0l-188 180q-24 20 -20.5 58.5z" />
<glyph unicode="a" horiz-adv-x="1011" d="M123 319q0 278 154.5 458.5t384.5 180.5q64 0 118.5 -20.5t87.5 -52.5q33 61 107 61q46 0 72 -32q20 -24 20 -57q0 -10 -2 -21l-131 -742q-8 -47 -43.5 -78.5t-85.5 -31.5q-47 0 -73 31q-19 23 -20 54q0 12 3 25l10 47q-102 -168 -303 -168q-143 0 -221 95t-78 251z M348 340q0 -79 37.5 -130.5t103.5 -51.5q111 0 186.5 83t102.5 226l45 250q-67 49 -153 49q-137 0 -229.5 -114t-92.5 -312z" />
<glyph unicode="b" horiz-adv-x="1026" d="M164 289q0 50 8 94l170 965q8 47 44 78.5t85 31.5q47 0 73 -32q21 -25 20 -59q0 -9 -1 -19l-84 -471q38 33 104 57t136 24q157 0 249.5 -90t92.5 -266q0 -288 -137.5 -458.5t-382.5 -170.5q-169 0 -273 81.5t-104 234.5zM385 309q0 -147 170 -147q88 0 153.5 56 t97.5 147.5t32 203.5q0 99 -44.5 150t-129.5 51q-41 0 -78.5 -10.5t-62.5 -26t-44 -31t-28 -26.5l-9 -10l-49 -273q-8 -44 -8 -84z" />
<glyph unicode="c" horiz-adv-x="923" d="M129 344q0 122 32 229.5t95.5 195t171 138.5t246.5 51q64 0 119.5 -16.5t92.5 -43t59.5 -49t35.5 -44.5q14 -22 14 -51q0 -40 -29.5 -69.5t-70.5 -29.5q-47 0 -74 35q-71 80 -182 80q-131 0 -208 -116.5t-77 -291.5q0 -200 178 -200q27 0 51 4.5t49.5 16t36 17t39.5 24.5 t31 20q34 20 62 20q40 0 68 -28t28 -68q0 -47 -45 -82q-145 -113 -352 -113q-175 0 -273 94t-98 277z" />
<glyph unicode="d" horiz-adv-x="1017" d="M129 348q0 280 139 445t367 165q70 0 130.5 -24t90.5 -57l84 471q7 46 45 78t84 32q47 0 73 -32q21 -25 20 -59q0 -9 -1 -19l-170 -965q-35 -204 -158 -307t-329 -103q-176 0 -275.5 97.5t-99.5 277.5zM352 381q0 -100 45.5 -159.5t130.5 -59.5q91 0 156.5 58.5 t85.5 162.5l49 283q-2 4 -6 11t-20 25t-35 32t-52 25t-71 11q-130 0 -206.5 -110.5t-76.5 -278.5z" />
<glyph unicode="e" horiz-adv-x="950" d="M131 354q0 174 65.5 311t188 215t281.5 78q155 0 246.5 -72t91.5 -179q0 -50 -12 -90.5t-52.5 -85t-109 -74.5t-191 -50t-289.5 -20q-6 -24 -6 -57q0 -158 193 -158q104 0 211 64q39 22 65 22q40 0 68 -28t28 -68q0 -47 -41 -80q-135 -109 -358 -109q-178 0 -278.5 95.5 t-100.5 285.5zM377 553q78 0 141.5 5.5t105 14.5t72.5 22t47.5 25.5t26 27t12 25t2.5 21.5q0 30 -31 54t-100 24q-97 0 -168.5 -54.5t-107.5 -164.5z" />
<glyph unicode="f" horiz-adv-x="659" d="M-160 -330q0 44 35 77.5t80 33.5q174 0 213 221l129 743h-41q-33 0 -55.5 22.5t-22.5 55.5q0 42 34 74.5t77 32.5h41l20 110q14 75 46 137.5t85 114.5t136 81.5t188 29.5q35 0 58.5 -24t23.5 -58q0 -44 -35 -77.5t-80 -33.5q-82 0 -133.5 -41.5t-63.5 -111.5l-22 -127 h137q33 0 54.5 -22.5t21.5 -55.5q0 -42 -33.5 -74.5t-75.5 -32.5h-139l-127 -731q-15 -89 -49.5 -163.5t-90 -134.5t-139.5 -94t-190 -34q-35 0 -58.5 24t-23.5 58z" />
<glyph unicode="g" horiz-adv-x="1032" d="M117 -209q0 94 78 158.5t270 128.5q-330 13 -330 319q0 248 143 404.5t392 156.5q173 0 269.5 -83t96.5 -236q0 -73 -10 -131l-90 -533q-33 -195 -169.5 -291t-356.5 -96q-127 0 -210 55.5t-83 147.5zM322 -150q0 -42 30.5 -65t89.5 -23q108 0 183.5 60t99.5 180l41 205 q-34 -52 -93 -96.5t-117 -74t-112.5 -57.5t-88 -60t-33.5 -69zM354 426q0 -174 178 -174q61 0 111.5 21.5t82.5 56.5t54 81.5t31.5 94t9.5 96.5q0 170 -178 170q-62 0 -112 -21t-82 -55.5t-54 -80.5t-31.5 -93t-9.5 -96z" />
<glyph unicode="h" horiz-adv-x="1021" d="M117 90l223 1258q7 46 45 78t84 32q47 0 73 -32q21 -25 20 -59q0 -9 -1 -19l-92 -512q45 52 119 87t166 35q81 0 139.5 -21.5t90.5 -59t46 -80.5t14 -95q0 -42 -10 -100l-90 -512q-7 -45 -45 -75.5t-84 -30.5q-49 0 -75 30q-19 23 -19 55q0 10 2 21l84 471q6 30 6 60 q0 137 -151 137q-207 0 -242 -211l-82 -457q-7 -46 -44.5 -76t-84.5 -30q-49 0 -75 28q-19 21 -19 54q0 11 2 24z" />
<glyph unicode="i" horiz-adv-x="436" d="M129 94l131 742q8 47 44 78.5t87 31.5q46 0 72 -32q20 -24 20 -57q0 -10 -2 -21l-131 -742q-8 -47 -43.5 -78.5t-85.5 -31.5q-47 0 -73 32q-21 25 -20 59q0 9 1 19zM299 1155q0 73 39.5 119.5t118.5 46.5q53 0 81.5 -26t28.5 -72q0 -73 -39 -119.5t-118 -46.5 q-53 0 -82 26t-29 72z" />
<glyph unicode="j" horiz-adv-x="436" d="M-143 -252q0 46 36.5 81.5t86.5 35.5q49 0 85.5 34t45.5 85l149 852q7 45 46 77.5t85 32.5t72 -32q20 -24 20 -57q0 -10 -2 -21l-149 -852q-25 -138 -135.5 -231t-253.5 -93q-36 0 -61 26t-25 62zM299 1155q0 73 39.5 119.5t118.5 46.5q53 0 81.5 -26t28.5 -72 q0 -73 -39 -119.5t-118 -46.5q-53 0 -82 26t-29 72z" />
<glyph unicode="k" horiz-adv-x="927" d="M127 90l223 1262q7 46 44.5 76t84.5 30t73 -30q21 -24 20 -58q0 -9 -1 -18l-127 -723l406 291q40 26 76 26q44 0 75 -31t31 -75q0 -62 -53 -95l-320 -202l238 -393q16 -26 16 -60q0 -44 -31 -75t-75 -31q-63 0 -88 45l-240 407l-82 -55l-49 -291q-7 -45 -45 -75.5 t-84 -30.5q-47 0 -73 30q-20 23 -21 56q0 9 2 20z" />
<glyph unicode="l" horiz-adv-x="497" d="M150 180q0 28 6 66l194 1102q7 46 45 78t84 32q47 0 73 -32q21 -25 20 -59q0 -9 -1 -19l-198 -1115q-4 -22 9.5 -33.5t27.5 -11.5q38 0 60 -23.5t22 -60.5q0 -49 -37.5 -84.5t-94.5 -35.5q-103 0 -156.5 49.5t-53.5 146.5z" />
<glyph unicode="m" horiz-adv-x="1628" d="M117 90l131 746q7 45 46 77.5t85 32.5q40 0 66 -26t26 -64l-2 -22q45 52 118 88t167 36q113 0 175.5 -32t104.5 -101q121 133 316 133q153 0 226 -73.5t73 -190.5q0 -46 -9 -92l-90 -512q-7 -45 -45 -75.5t-84 -30.5q-49 0 -75 28q-19 21 -19 54q0 11 2 24l84 471 q6 30 6 60q0 137 -151 137q-106 0 -165 -52t-75 -143l-84 -473q-7 -45 -45 -75.5t-84 -30.5q-49 0 -75 28q-19 21 -19 54q0 11 2 24l84 471q6 30 6 60q0 137 -151 137q-207 0 -242 -211l-82 -457q-7 -46 -44.5 -76t-84.5 -30q-49 0 -75 28q-19 21 -19 54q0 11 2 24z" />
<glyph unicode="n" horiz-adv-x="1021" d="M117 90l131 746q7 45 46 77.5t85 32.5q40 0 66 -26t26 -64l-2 -22q44 51 121 87.5t172 36.5q148 0 215 -70.5t67 -185.5q0 -42 -10 -100l-90 -512q-7 -45 -45 -75.5t-84 -30.5q-49 0 -75 30q-19 22 -19 53q0 11 2 23l84 471q6 35 6 60q0 137 -151 137q-207 0 -242 -211 l-82 -457q-7 -46 -44.5 -76t-84.5 -30q-49 0 -75 28q-19 21 -19 54q0 11 2 24z" />
<glyph unicode="o" horiz-adv-x="1015" d="M129 330q0 97 19.5 186.5t62.5 170.5t105.5 141t155.5 95t206 35q178 0 276.5 -89.5t98.5 -266.5q0 -97 -19.5 -186.5t-62.5 -171t-105.5 -141t-155.5 -95t-206 -35.5q-178 0 -276.5 89.5t-98.5 267.5zM354 362q0 -200 183 -200q76 0 134.5 37.5t91 98.5t48.5 130t16 141 q0 201 -182 201q-76 0 -134.5 -37.5t-91.5 -99t-49 -130.5t-16 -141z" />
<glyph unicode="p" horiz-adv-x="1052" d="M59 -301l201 1137q7 45 46 77.5t85 32.5t72 -32q20 -24 20 -57q0 -10 -2 -21q38 48 106.5 85t157.5 37q345 0 345 -356q0 -181 -60 -322.5t-179 -224t-280 -82.5q-74 0 -135.5 27t-91.5 70l-63 -371q-8 -46 -45.5 -78.5t-83.5 -32.5t-73 32q-21 26 -21 61q0 9 1 18z M391 362q0 -200 182 -200q76 0 134.5 37.5t91.5 98.5t49 130t16 141q0 201 -182 201q-76 0 -134.5 -37.5t-91.5 -99t-49 -130.5t-16 -141z" />
<glyph unicode="q" horiz-adv-x="1011" d="M129 330q0 286 149 457t400 171q166 0 258 -80t92 -235q0 -50 -8 -94l-150 -850q-8 -46 -46 -78.5t-85 -32.5t-73 30q-19 23 -19 57q0 11 2 24l64 358q-41 -34 -108.5 -59t-139.5 -25q-154 0 -245 91.5t-91 265.5zM352 383q0 -109 45 -165t131 -56q34 0 70 10.5t62 26 t47 31t32 26.5l11 10l49 283q4 18 4 53q0 80 -45 124t-123 44q-121 0 -202 -109.5t-81 -277.5z" />
<glyph unicode="r" horiz-adv-x="663" d="M119 94l131 742q8 46 45 78t86 32q45 0 71 -32q21 -26 20 -61q0 -8 -1 -17l-2 -17q41 62 104 99.5t136 37.5q43 0 67.5 -25.5t24.5 -64.5q0 -47 -37.5 -82.5t-85.5 -35.5q-104 0 -173.5 -62t-88.5 -166l-76 -426q-7 -46 -45 -78t-84 -32q-49 0 -75 30q-19 23 -19 56 q0 11 2 24z" />
<glyph unicode="s" horiz-adv-x="870" d="M84 184q0 40 29 69.5t69 29.5q34 0 68 -27q93 -82 221 -82q75 0 121.5 25.5t46.5 66.5q0 33 -32.5 59t-80.5 42.5t-105 40.5t-105 51.5t-80.5 77.5t-32.5 116q0 102 53.5 172.5t138 101.5t193.5 31q105 0 194.5 -40.5t124.5 -96.5q15 -23 15 -51q0 -40 -29.5 -69 t-69.5 -29q-34 0 -69 28q-78 66 -187 66q-63 0 -99 -22.5t-36 -63.5q0 -30 24 -54.5t62 -41.5t84.5 -34.5t93 -39t84.5 -48t62 -68.5t24 -95q0 -152 -112 -237t-318 -85q-119 0 -209.5 50t-128.5 108q-14 22 -14 49z" />
<glyph unicode="t" horiz-adv-x="626" d="M180 823q0 42 34 74.5t77 32.5h47l29 172q7 44 45.5 76t83.5 32q44 0 70 -32q20 -24 20 -56q0 -10 -2 -20l-31 -172h94q33 0 54.5 -22.5t21.5 -55.5q0 -43 -33 -75t-76 -32h-92l-86 -477q-4 -20 -4 -35q0 -27 20.5 -42t47.5 -15q35 0 57.5 -24t22.5 -58 q0 -47 -34.5 -78.5t-94.5 -31.5q-117 0 -177.5 59.5t-60.5 161.5q0 27 6 57l86 483h-47q-33 0 -55.5 22.5t-22.5 55.5z" />
<glyph unicode="u" d="M145 252q0 38 11 106l84 478q7 45 46 77.5t85 32.5t72 -32q20 -24 20 -57q0 -10 -2 -21l-84 -478q-6 -35 -6 -59q0 -59 35 -92t122 -33q184 0 215 184l84 478q7 45 46 77.5t85 32.5t72 -32q20 -25 21 -57q0 -10 -2 -21l-84 -478q-11 -66 -29 -118t-52.5 -104t-82.5 -86 t-123 -55.5t-170 -21.5q-191 0 -277 76t-86 203z" />
<glyph unicode="v" horiz-adv-x="925" d="M170 836q0 46 32.5 78t78.5 32q43 0 70 -22.5t34 -51.5l131 -565l324 576q33 63 100 63q46 0 78.5 -32t32.5 -78q0 -29 -19 -62l-459 -723q-41 -67 -112 -67q-35 0 -59.5 18t-32.5 49l-195 748q-4 12 -4 37z" />
<glyph unicode="w" horiz-adv-x="1302" d="M170 836q0 47 32.5 78.5t78.5 31.5q41 0 71.5 -27t36.5 -63l88 -485l223 495q14 33 43.5 56.5t71.5 23.5q43 0 69 -24t29 -56l50 -495l258 516q15 28 41.5 43.5t56.5 15.5q46 0 78.5 -32t32.5 -78q0 -29 -17 -60l-416 -723q-38 -69 -114 -69q-37 0 -62 21.5t-30 55.5 l-48 449l-206 -447q-17 -35 -50.5 -57t-70.5 -22q-36 0 -61 20t-31 51l-148 731q-6 24 -6 50z" />
<glyph unicode="x" horiz-adv-x="864" d="M47 94q0 47 37 84l299 301l-184 305q-13 18 -13 52q0 46 32.5 78t78.5 32q29 0 55 -14t37 -35l154 -252l237 264q34 37 82 37q46 0 78.5 -32t32.5 -78q0 -47 -37 -84l-285 -285l180 -311q19 -28 19 -62q0 -46 -32.5 -78t-78.5 -32q-64 0 -96 55l-151 264 q-172 -195 -252 -283q-34 -36 -82 -36q-46 0 -78.5 32t-32.5 78z" />
<glyph unicode="y" d="M80 -209q0 94 77.5 158t268.5 129q-264 37 -264 272q0 45 10 107l68 379q7 45 46 77.5t85 32.5t72 -32q20 -24 20 -57q0 -10 -2 -21l-68 -379q-6 -34 -6 -60q0 -59 35.5 -92t122.5 -33q186 0 217 185l65 379q7 45 46 77.5t85 32.5t72 -32q21 -25 21 -57q0 -10 -2 -21 l-150 -861q-33 -195 -169.5 -291t-356.5 -96q-127 0 -210 55.5t-83 147.5zM285 -150q0 -42 31 -65t90 -23q107 0 182 60t100 180l39 188q-30 -47 -88 -88t-116.5 -68.5t-113.5 -55t-89.5 -59.5t-34.5 -69z" />
<glyph unicode="z" horiz-adv-x="837" d="M49 82q0 39 35 74l543 589h-344q-33 0 -55.5 22.5t-22.5 55.5q0 42 33.5 74.5t76.5 32.5h527q35 0 58.5 -25t23.5 -59q0 -39 -35 -78l-533 -580h371q33 0 55.5 -24t22.5 -58q0 -42 -34.5 -74t-76.5 -32h-565q-35 0 -57.5 24t-22.5 58z" />
<glyph unicode="{" horiz-adv-x="733" d="M168 594q0 39 31 68.5t71 29.5q69 0 106 26t50 101q12 63 17.5 198t21.5 216q11 57 38.5 105t71.5 88t110.5 62.5t148.5 22.5q36 0 60 -25t24 -61q0 -45 -36.5 -79.5t-82.5 -34.5t-75.5 -26t-37.5 -71q-12 -65 -21.5 -173.5t-19.5 -161.5q-18 -100 -69 -176t-125 -97 q108 -47 108 -192q0 -90 -45 -243.5t-45 -193.5q0 -75 82 -75q36 0 60 -25t24 -61q0 -46 -38 -80.5t-91 -34.5q-70 0 -122.5 20t-83 54.5t-45.5 75.5t-15 88q0 74 28.5 165t57 176.5t28.5 147.5q0 54 -27.5 73t-86.5 19q-32 0 -52 21.5t-20 52.5z" />
<glyph unicode="|" horiz-adv-x="450" d="M74 -215l311 1757q8 47 44 80t87 33q46 0 73 -33.5t19 -79.5l-309 -1757q-8 -47 -44 -80t-87 -33q-49 0 -75.5 33t-18.5 80z" />
<glyph unicode="}" horiz-adv-x="733" d="M31 -213q0 45 36.5 80t82.5 35t75 25.5t37 70.5q12 65 21.5 174t19.5 162q18 100 69.5 175.5t125.5 96.5q-109 47 -109 193q0 70 22.5 158.5t45 164t22.5 113.5q0 76 -82 76q-36 0 -60 25t-24 61q0 46 38 80t91 34q135 0 201 -69t66 -168q0 -59 -18 -129.5t-39.5 -125 t-39.5 -120t-18 -115.5q0 -54 28 -73t87 -19q32 0 51.5 -21.5t19.5 -52.5q0 -39 -31 -68.5t-71 -29.5q-69 0 -106 -26t-50 -101q-12 -63 -17.5 -197.5t-21.5 -215.5q-24 -120 -116.5 -199.5t-251.5 -79.5q-36 0 -60 25t-24 61z" />
<glyph unicode="~" horiz-adv-x="958" d="M147 565q0 21 15 51q33 65 102.5 107.5t161.5 42.5q48 0 99.5 -19t89 -41.5t79.5 -41.5t72 -19q18 0 34 8.5t25 18.5t21 28q18 25 36.5 37.5t47.5 12.5q40 0 68 -28.5t28 -68.5q0 -23 -14 -51q-33 -65 -102.5 -107t-161.5 -42q-47 0 -98 18.5t-87.5 41.5t-79 41.5 t-75.5 18.5q-18 0 -34 -8.5t-25 -18.5t-21 -28q-36 -49 -84 -49q-40 0 -68.5 28t-28.5 68z" />
<glyph unicode="&#xa1;" horiz-adv-x="434" d="M33 -338l182 815q8 35 33.5 56.5t66.5 21.5q44 0 62.5 -21t13.5 -57l-106 -815q-14 -115 -148 -115q-130 0 -104 115zM227 795q0 79 41.5 121t118.5 42q115 0 115 -104q0 -79 -42.5 -122.5t-119.5 -43.5q-113 0 -113 107z" />
<glyph unicode="&#xa2;" horiz-adv-x="923" d="M129 344q0 88 16 169t51.5 155t87 131.5t127 97.5t167.5 53l14 78q8 40 39.5 68t70.5 28q41 0 64.5 -28t15.5 -68l-14 -80q80 -19 132.5 -60.5t80.5 -82.5q14 -22 14 -51q0 -40 -29.5 -69.5t-70.5 -29.5q-47 0 -74 35q-71 80 -182 80q-131 0 -208 -116.5t-77 -291.5 q0 -200 178 -200q27 0 51 4.5t49.5 16t36 17t39.5 24.5t31 20q34 20 62 20q40 0 68 -28t28 -68q0 -47 -45 -82q-110 -85 -256 -106l-14 -80q-8 -40 -40 -68.5t-73 -28.5q-40 0 -63 28.5t-15 68.5l15 82q-133 24 -205 114.5t-72 247.5z" />
<glyph unicode="&#xa3;" horiz-adv-x="1200" d="M131 88q0 56 55 98q32 24 52 40.5t50 47t47 58.5t30.5 67t13.5 80q0 28 -6 58h-121q-37 0 -61.5 25.5t-24.5 62.5q0 47 37.5 81.5t85.5 34.5h30q-32 110 -32 193q0 98 35 183t101.5 150t170.5 102.5t233 37.5q172 0 283.5 -75t138.5 -204q4 -20 4 -36q0 -44 -32 -76.5 t-76 -32.5q-41 0 -68 24t-35 50q-23 71 -80.5 108t-168.5 37q-121 0 -200 -72t-79 -188q0 -82 39 -201h293q38 0 62 -25.5t24 -62.5q0 -47 -36.5 -81.5t-86.5 -34.5h-211q2 -14 2 -33q0 -87 -50.5 -164.5t-129.5 -132.5q62 33 135 33q59 0 144.5 -32t131.5 -32q87 0 144 80 q39 57 98 57q46 0 78.5 -32t32.5 -78q0 -31 -21 -66q-110 -168 -342 -168q-60 0 -176 45t-180 45q-72 0 -154 -55q-36 -24 -71 -24q-44 0 -76.5 32t-32.5 76z" />
<glyph unicode="&#xa4;" horiz-adv-x="958" d="M209 313q0 45 33 78l57 55q-47 78 -47 189q0 109 53 192l-61 54q-35 31 -35 80q0 44 31 75t75 31q40 0 76 -31l62 -61q82 49 196 49q115 0 197 -49l61 61q36 31 76 31q44 0 75.5 -31t31.5 -75q0 -49 -35 -80l-62 -54q54 -85 54 -192q0 -109 -48 -189l58 -55 q33 -33 33 -78q0 -44 -31.5 -75t-75.5 -31q-40 0 -76 31l-57 57q-85 -49 -201 -49q-115 0 -200 49l-58 -57q-36 -31 -76 -31q-44 0 -75 31t-31 75zM463 635q0 -80 52 -135.5t134 -55.5t134.5 55.5t52.5 135.5q0 81 -52.5 135.5t-134.5 54.5t-134 -54.5t-52 -135.5z" />
<glyph unicode="&#xa5;" horiz-adv-x="1134" d="M188 311q0 42 35 74.5t78 32.5h221l15 84h-222q-33 0 -56 24t-23 58q0 42 35 74t77 32h180l-256 537q-10 20 -10 49q0 50 35 84.5t84 34.5q74 0 102 -60l236 -481l389 492q40 49 96 49q50 0 84.5 -34.5t34.5 -84.5q0 -40 -31 -80l-442 -506h178q35 0 57.5 -24t22.5 -58 q0 -42 -35 -74t-78 -32h-221l-14 -84h221q33 0 55.5 -24t22.5 -58q0 -42 -34.5 -74.5t-76.5 -32.5h-221l-22 -127q-9 -51 -47.5 -84.5t-92.5 -33.5q-53 0 -80 34t-18 84l22 127h-221q-35 0 -57.5 24t-22.5 58z" />
<glyph unicode="&#xa6;" horiz-adv-x="450" d="M74 -215l125 702q8 46 46 79.5t85 33.5q46 0 74 -33.5t20 -79.5l-125 -702q-8 -46 -46 -79.5t-85 -33.5t-74.5 33.5t-19.5 79.5zM260 842l125 700q8 46 46 79.5t85 33.5q46 0 73.5 -33.5t18.5 -79.5l-123 -700q-8 -46 -46 -79.5t-85 -33.5t-74.5 33.5t-19.5 79.5z" />
<glyph unicode="&#xa7;" horiz-adv-x="1013" d="M27 -164q0 43 30.5 74t73.5 31t80 -37q101 -109 256 -109q118 0 179 50t61 120q0 43 -24 77.5t-64 57.5t-90.5 46.5t-103.5 43.5t-103.5 50.5t-90.5 66t-64 91t-24 124.5q0 180 168 301q-57 73 -57 183q0 63 19 121t58.5 109.5t97 89t139.5 59.5t180 22q136 0 237.5 -55 t153.5 -127q22 -32 22 -66q0 -43 -30.5 -73.5t-73.5 -30.5q-41 0 -76 35q-44 44 -111 77t-149 33q-118 0 -179 -50t-61 -120q0 -43 24.5 -77.5t64 -57.5t90.5 -46.5t104 -43.5t104 -50.5t90.5 -66t64 -91t24.5 -124.5q0 -180 -168 -301q55 -75 55 -182q0 -79 -32 -150.5 t-92 -128t-156 -90t-214 -33.5q-123 0 -229.5 52.5t-161.5 130.5q-22 33 -22 65zM365 563q0 -46 30 -84t79.5 -64.5t99 -46t103.5 -40t79 -35.5q67 63 67 139q0 46 -30 84t-79.5 64.5t-99 46t-103.5 40t-79 35.5q-67 -67 -67 -139z" />
<glyph unicode="&#xa8;" horiz-adv-x="673" d="M254 1149q0 131 123 131q86 0 86 -82q0 -63 -32 -97t-91 -34q-86 0 -86 82zM625 1149q0 131 123 131q86 0 86 -82q0 -63 -32 -97t-91 -34q-86 0 -86 82z" />
<glyph unicode="&#xa9;" horiz-adv-x="1619" d="M240 688q0 358 184.5 538.5t527.5 180.5q347 0 529 -179.5t182 -539.5q0 -358 -182 -537.5t-529 -179.5q-343 0 -527.5 180t-184.5 537zM395 688q0 -292 140.5 -432.5t416.5 -140.5q278 0 416.5 140t138.5 433q0 294 -138.5 435t-416.5 141q-557 0 -557 -576zM623 690 q0 190 88 282.5t245 92.5q97 0 165 -37.5t96 -85.5q8 -13 8 -33q0 -25 -17.5 -42t-42.5 -17q-27 0 -45 20q-34 37 -70 54.5t-94 17.5q-96 0 -147 -55t-51 -197q0 -139 51.5 -194.5t146.5 -55.5q59 0 100 15t79 49q16 16 41 16t42 -17t17 -42q0 -18 -10 -33 q-32 -46 -106 -78.5t-163 -32.5q-157 0 -245 91.5t-88 281.5z" />
<glyph unicode="&#xaa;" horiz-adv-x="729" d="M162 555q0 33 27 58.5t61 25.5h452q28 0 45 -18t17 -46q0 -33 -27 -58t-61 -25h-453q-28 0 -44.5 17.5t-16.5 45.5zM236 975q0 188 104 310t260 122q86 0 141 -51q22 43 72 43q30 0 48 -22.5t13 -53.5l-88 -502q-6 -32 -30.5 -54t-57.5 -22t-50.5 21.5t-10.5 54.5l6 31 q-72 -113 -205 -113q-96 0 -149 65t-53 171zM387 987q0 -54 25.5 -88.5t70.5 -34.5q74 0 126 56t71 153l31 170q-47 35 -105 35q-93 0 -156 -78t-63 -213z" />
<glyph unicode="&#xab;" horiz-adv-x="1067" d="M166 424q0 32 33 65l381 371q23 23 57 23t57 -23t23 -57q0 -36 -31 -64l-346 -313l233 -317q13 -20 13 -43q0 -34 -23 -57t-57 -23q-44 0 -68 37l-254 352q-18 27 -18 49zM565 424q0 32 33 65l381 371q23 23 57 23t57 -23t23 -57q0 -36 -31 -64l-346 -313l234 -317 q12 -18 12 -43q0 -34 -23 -57t-57 -23q-43 0 -67 37l-254 352q-19 29 -19 49z" />
<glyph unicode="&#xac;" horiz-adv-x="1163" d="M168 563q0 44 37 78.5t80 34.5h827q41 0 66.5 -31t17.5 -72l-86 -487q-8 -41 -43 -71.5t-76 -30.5t-67 30.5t-19 71.5l70 393h-725q-35 0 -58.5 25t-23.5 59z" />
<glyph unicode="&#xad;" horiz-adv-x="774" d="M178 504q0 43 33.5 74.5t79.5 31.5h409q33 0 55.5 -24t22.5 -58q0 -43 -33 -74.5t-77 -31.5h-410q-35 0 -57.5 24t-22.5 58z" />
<glyph unicode="&#xae;" horiz-adv-x="802" d="M283 1096q0 156 79 233.5t222 77.5q148 0 226.5 -77t78.5 -234t-79 -235.5t-226 -78.5q-143 0 -222 79t-79 235zM352 1096q0 -254 234 -254q233 0 233 254t-233 254q-117 0 -175.5 -61t-58.5 -193zM467 965v264q0 10 8 18t19 8h118q45 0 74 -30t29 -70q0 -45 -23.5 -72.5 t-58.5 -27.5l65 -74q7 -9 7 -18q0 -12 -8.5 -20.5t-20.5 -8.5q-16 0 -25 12l-80 109h-43v-90q0 -12 -9 -21.5t-21 -9.5t-21.5 9.5t-9.5 21.5zM528 1108h76q49 0 49 47q0 21 -12.5 34t-36.5 13h-76v-94z" />
<glyph unicode="&#xaf;" horiz-adv-x="813" d="M354 1141q0 35 28 61.5t64 26.5h355q29 0 47 -19t18 -49q0 -35 -28 -61.5t-64 -26.5h-354q-29 0 -47.5 19.5t-18.5 48.5z" />
<glyph unicode="&#xb0;" horiz-adv-x="759" d="M303 1126q0 117 80 199t199 82q121 0 200.5 -82t79.5 -199t-79.5 -197.5t-200.5 -80.5q-119 0 -199 81t-80 197zM436 1126q0 -60 41 -102.5t105 -42.5q66 0 106.5 42.5t40.5 102.5q0 61 -41 104.5t-106 43.5q-64 0 -105 -43.5t-41 -104.5z" />
<glyph unicode="&#xb1;" horiz-adv-x="929" d="M14 82q0 42 35 74t78 32h741q33 0 55.5 -24t22.5 -58q0 -42 -34 -74t-76 -32h-742q-35 0 -57.5 24t-22.5 58zM115 651q0 43 34 75t78 32h273l43 248q8 40 41.5 69t74.5 29q40 0 63.5 -29t16.5 -69l-43 -248h273q33 0 55.5 -24t22.5 -58q0 -42 -34 -74.5t-77 -32.5h-274 l-44 -245q-8 -40 -40.5 -69.5t-73.5 -29.5q-40 0 -64.5 29.5t-17.5 69.5l43 245h-270q-35 0 -57.5 24t-22.5 58z" />
<glyph unicode="&#xb2;" horiz-adv-x="591" d="M219 934q5 57 29.5 101.5t59 72.5t75 50t80 37.5t71.5 31t52 36t20 46.5q0 24 -20 38.5t-58 14.5q-46 0 -118 -57q-19 -15 -41 -15q-26 0 -46 20t-20 46q0 31 33 61q34 32 93.5 55t121.5 23q98 0 153.5 -46t55.5 -120q0 -63 -36.5 -111t-89.5 -75.5t-106 -49t-93 -44 t-44 -48.5h256q24 0 39.5 -15.5t15.5 -39.5q0 -30 -24 -53t-55 -23h-342q-27 0 -46 18.5t-16 45.5z" />
<glyph unicode="&#xb3;" horiz-adv-x="565" d="M213 999q0 28 17.5 46t43.5 18q32 0 52 -23q47 -53 120 -53q56 0 83.5 27.5t27.5 68.5q0 64 -65 64h-54q-22 0 -35.5 14.5t-13.5 36.5q0 30 35 62l104 92h-163q-25 0 -40.5 16t-15.5 39q0 31 23.5 53.5t54.5 22.5h289q24 0 39.5 -16t15.5 -40q0 -34 -31 -59l-122 -108 q129 -15 129 -162q0 -105 -73 -172.5t-210 -67.5q-73 0 -123.5 32t-77.5 73q-10 17 -10 36z" />
<glyph unicode="&#xb4;" horiz-adv-x="786" d="M414 1100q3 24 24 45l209 221q26 29 62 28t63 -34q29 -38 24 -70t-36 -57l-234 -180q-54 -40 -94 0q-21 23 -18 47z" />
<glyph unicode="&#xb5;" d="M37 -309l203 1145q7 46 45 78t84 32t72.5 -32t19.5 -78l-84 -478q-6 -38 -6 -59q0 -59 35 -92t122 -33q184 0 215 184l84 478q7 46 45 78t84 32t73 -32t20 -78l-84 -478q-11 -66 -29 -118t-52.5 -104t-82.5 -86t-123 -55.5t-170 -21.5q-64 0 -117 18.5t-72 45.5l-61 -346 q-8 -46 -45.5 -78.5t-83.5 -32.5t-73 32.5t-19 78.5z" />
<glyph unicode="&#xb6;" horiz-adv-x="1130" d="M82 68q0 43 29.5 72.5t72.5 29.5q22 0 73 -17.5t85 -17.5q97 0 153.5 75.5t82.5 223.5l28 168h-45q-143 0 -234 95.5t-91 236.5q0 180 137.5 312t324.5 132h539q38 0 62 -25.5t24 -64.5q0 -47 -37.5 -83t-85.5 -36h-26l-99 -557q-119 -680 -721 -680q-57 0 -126.5 14.5 t-96.5 33.5q-49 35 -49 88zM573 137q103 33 164 133t94 283l109 616h-76l-125 -706q-37 -211 -166 -326z" />
<glyph unicode="&#xb7;" horiz-adv-x="460" d="M201 586q0 79 42 122.5t119 43.5q113 0 113 -107q0 -79 -41.5 -121.5t-118.5 -42.5q-114 0 -114 105z" />
<glyph unicode="&#xb8;" horiz-adv-x="669" d="M59 -395q0 22 16 37.5t38 15.5q12 0 24 -6q53 -29 121 -29q59 0 89 25t30 84q0 69 -98 69q-18 0 -48.5 -6t-44.5 -6q-20 0 -28.5 13t-5.5 32l28 166h103l-29 -109q29 7 74 7q75 0 120.5 -39.5t45.5 -110.5q0 -106 -65.5 -168.5t-197.5 -62.5q-89 0 -147 43q-25 19 -25 45 z" />
<glyph unicode="&#xb9;" horiz-adv-x="466" d="M272 1307q0 42 41 63l201 107q24 12 41 12q32 0 51.5 -22.5t14.5 -53.5l-84 -473q-4 -31 -30.5 -53.5t-57.5 -22.5t-50.5 22.5t-13.5 53.5l61 346l-73 -41q-16 -8 -31 -8q-28 0 -49 21t-21 49z" />
<glyph unicode="&#xba;" horiz-adv-x="741" d="M162 555q0 33 27 58.5t61 25.5h452q28 0 45 -18t17 -46q0 -33 -27 -58t-61 -25h-453q-28 0 -44.5 17.5t-16.5 45.5zM248 979q0 83 20.5 156.5t62.5 136t115 99t170 36.5q121 0 186.5 -60.5t65.5 -179.5q0 -83 -20.5 -156.5t-62.5 -136t-115 -99t-170 -36.5 q-121 0 -186.5 60.5t-65.5 179.5zM401 1001q0 -133 121 -133q52 0 91 25t60.5 66.5t31.5 88t10 97.5q0 133 -121 133q-52 0 -91 -25t-60.5 -66.5t-31.5 -88t-10 -97.5z" />
<glyph unicode="&#xbb;" horiz-adv-x="1067" d="M100 66q0 35 31 63l346 313l-233 318q-13 20 -13 43q0 34 23 57t57 23q44 0 68 -37l254 -352q18 -27 18 -50q0 -32 -33 -65l-380 -371q-22 -22 -58 -22q-34 0 -57 23t-23 57zM500 66q0 36 30 63l347 313l-234 318q-12 18 -12 43q0 34 23 57t57 23q43 0 67 -37l254 -352 q19 -29 19 -50q0 -32 -33 -65l-381 -371q-22 -22 -57 -22q-34 0 -57 23t-23 57z" />
<glyph unicode="&#xbc;" horiz-adv-x="1048" d="M180 70q0 23 13 45l698 1231q29 49 78 49q35 0 60.5 -25.5t25.5 -60.5q0 -22 -15 -47l-696 -1229q-27 -49 -78 -49q-35 0 -60.5 25.5t-25.5 60.5zM248 1219q0 42 41 63l200 107q24 12 41 12q32 0 51.5 -22.5t14.5 -53.5l-84 -473q-4 -31 -30.5 -53.5t-57.5 -22.5 t-50.5 22.5t-13.5 53.5l62 346l-74 -41q-16 -8 -31 -8q-28 0 -48.5 21t-20.5 49zM516 164q0 25 23 51l327 358q35 35 72 35q31 0 50 -22.5t13 -53.5l-51 -294h31q24 0 39.5 -16t15.5 -40q0 -31 -23.5 -53.5t-54.5 -22.5h-30l-8 -47q-6 -32 -31.5 -53.5t-59.5 -21.5 q-31 0 -49 22t-12 53l8 47h-203q-24 0 -40.5 17t-16.5 41zM705 238h94l24 137z" />
<glyph unicode="&#xbd;" horiz-adv-x="1122" d="M188 70q0 23 13 45l698 1231q29 49 78 49q35 0 60.5 -25.5t25.5 -60.5q0 -24 -14 -47l-697 -1229q-27 -49 -78 -49q-35 0 -60.5 25.5t-25.5 60.5zM256 1219q0 42 41 63l201 107q24 12 41 12q32 0 51 -22.5t14 -53.5l-84 -473q-4 -31 -30.5 -53.5t-57.5 -22.5t-50 22.5 t-13 53.5l61 346l-74 -41q-16 -8 -30 -8q-28 0 -49 21t-21 49zM604 63q5 57 29.5 101.5t59 72.5t75 50t80 37.5t71.5 31t52 36t20 46.5q0 24 -20 39t-58 15q-45 0 -118 -58q-17 -14 -41 -14q-26 0 -46 19.5t-20 45.5q0 32 33 62q34 32 93.5 55t121.5 23q98 0 153.5 -46 t55.5 -120q0 -63 -36.5 -111t-89.5 -75.5t-106 -49t-93 -44t-44 -48.5h256q24 0 39.5 -15.5t15.5 -39.5q0 -30 -24 -53t-55 -23h-342q-27 0 -46 18t-16 45z" />
<glyph unicode="&#xbe;" horiz-adv-x="1142" d="M199 911q0 28 17.5 46t43.5 18q31 0 51 -23q47 -53 121 -53q56 0 83.5 27.5t27.5 68.5q0 64 -66 64h-53q-22 0 -35.5 14.5t-13.5 36.5q0 29 35 61l104 93h-164q-24 0 -39.5 15.5t-15.5 39.5q0 31 23.5 53.5t54.5 22.5h289q24 0 39.5 -16t15.5 -40q0 -34 -31 -59 l-123 -109q129 -15 129 -161q0 -105 -72.5 -172.5t-209.5 -67.5q-73 0 -124 32t-77 72q-10 17 -10 37zM295 70q0 25 12 45l699 1231q29 49 77 49q35 0 60.5 -25.5t25.5 -60.5q0 -24 -14 -47l-696 -1229q-27 -49 -78 -49q-35 0 -60.5 25.5t-25.5 60.5zM633 164q0 26 22 51 l328 358q35 35 72 35q31 0 50 -22.5t13 -53.5l-51 -294h31q24 0 39.5 -16t15.5 -40q0 -31 -23.5 -53.5t-54.5 -22.5h-31l-8 -47q-6 -32 -31 -53.5t-59 -21.5q-31 0 -49 22t-12 53l8 47h-203q-24 0 -40.5 17t-16.5 41zM821 238h94l25 137z" />
<glyph unicode="&#xbf;" horiz-adv-x="927" d="M12 -170q0 82 26.5 149.5t69.5 112t94.5 81t103 62.5t94.5 49t69.5 48t26.5 53q0 23 -10.5 53t-10.5 49q0 45 32.5 75t78.5 30q60 0 101.5 -48t41.5 -124q0 -62 -27 -113.5t-70 -87.5t-95 -68t-104.5 -61t-95.5 -59.5t-70 -72t-27 -89.5q0 -63 46.5 -98t133.5 -35 q89 0 148.5 44t74.5 128q9 52 47 82t86 30q41 0 67.5 -28t26.5 -68q0 -167 -133 -278t-352 -111q-178 0 -275.5 77t-97.5 218zM518 795q0 79 41.5 121t118.5 42q115 0 115 -104q0 -79 -42.5 -122.5t-119.5 -43.5q-113 0 -113 107z" />
<glyph unicode="&#xc0;" horiz-adv-x="1277" d="M55 100q0 30 19 62l690 1157q42 76 121 76q41 0 65.5 -23.5t30.5 -50.5l274 -1186q5 -15 5 -35q0 -47 -35 -81.5t-82 -34.5q-92 0 -113 86l-69 288h-506l-181 -315q-34 -59 -102 -59q-51 0 -84 34t-33 82zM573 575h347l-97 431zM756 1717.5q4 38.5 41 68.5q42 31 74.5 30 t50.5 -28l141 -219q31 -50 -14 -90q-44 -40 -84 0l-189 180q-24 20 -20 58.5z" />
<glyph unicode="&#xc1;" horiz-adv-x="1277" d="M55 100q0 30 19 62l690 1157q42 76 121 76q41 0 65.5 -23.5t30.5 -50.5l274 -1186q5 -15 5 -35q0 -47 -35 -81.5t-82 -34.5q-92 0 -113 86l-69 288h-506l-181 -315q-34 -59 -102 -59q-51 0 -84 34t-33 82zM573 575h347l-97 431zM734 1526q3 24 24 45l209 221q26 29 62 28 t63 -34q29 -38 23.5 -70t-36.5 -57l-233 -180q-54 -40 -94 0q-21 23 -18 47z" />
<glyph unicode="&#xc2;" horiz-adv-x="1277" d="M55 100q0 30 19 62l690 1157q42 76 121 76q41 0 65.5 -23.5t30.5 -50.5l274 -1186q5 -15 5 -35q0 -47 -35 -81.5t-82 -34.5q-92 0 -113 86l-69 288h-506l-181 -315q-34 -59 -102 -59q-51 0 -84 34t-33 82zM573 575h347l-97 431zM635 1546q0 48 43 70l215 119q35 18 55 18 q25 0 47 -16l160 -129q31 -25 31 -64q0 -34 -23 -57t-57 -23q-29 0 -49 17l-125 102l-168 -104q-23 -15 -49 -15q-34 0 -57 23.5t-23 58.5z" />
<glyph unicode="&#xc3;" horiz-adv-x="1277" d="M55 100q0 30 19 62l690 1157q42 76 121 76q41 0 65.5 -23.5t30.5 -50.5l274 -1186q5 -15 5 -35q0 -47 -35 -81.5t-82 -34.5q-92 0 -113 86l-69 288h-506l-181 -315q-34 -59 -102 -59q-51 0 -84 34t-33 82zM573 575h347l-97 431zM592 1575q0 25 12 45q57 94 197 94 q62 0 140.5 -34.5t111.5 -34.5q24 0 57 38q26 29 61 29q34 0 57 -23t23 -57q0 -25 -12 -45q-57 -94 -195 -94q-49 0 -97 17.5t-85.5 35t-62.5 17.5q-32 0 -62 -35q-30 -33 -65 -33q-34 0 -57 23t-23 57z" />
<glyph unicode="&#xc4;" horiz-adv-x="1277" d="M55 100q0 30 19 62l690 1157q42 76 121 76q41 0 65.5 -23.5t30.5 -50.5l274 -1186q5 -15 5 -35q0 -47 -35 -81.5t-82 -34.5q-92 0 -113 86l-69 288h-506l-181 -315q-34 -59 -102 -59q-51 0 -84 34t-33 82zM573 575h347l-97 431zM633 1597q0 64 31.5 98t91.5 34 q86 0 86 -82q0 -63 -32 -97t-91 -34q-86 0 -86 81zM1004 1597q0 132 122 132q86 0 86 -82q0 -63 -31.5 -97t-90.5 -34q-86 0 -86 81z" />
<glyph unicode="&#xc5;" horiz-adv-x="1277" d="M55 100q0 30 19 62l690 1157q42 76 121 76q41 0 65.5 -23.5t30.5 -50.5l274 -1186q5 -15 5 -35q0 -47 -35 -81.5t-82 -34.5q-92 0 -113 86l-69 288h-506l-181 -315q-34 -59 -102 -59q-51 0 -84 34t-33 82zM573 575h347l-97 431zM707 1593q0 110 67 181t189 71 q92 0 138 -39.5t46 -113.5q0 -110 -67 -181t-189 -71q-92 0 -138 39.5t-46 113.5zM821 1612q0 -70 88 -70q60 0 91.5 35.5t31.5 95.5q0 70 -88 70q-60 0 -91.5 -35.5t-31.5 -95.5z" />
<glyph unicode="&#xc6;" horiz-adv-x="1769" d="M63 94q0 40 31 76l971 1155q45 53 121 53h637q39 0 64.5 -25.5t25.5 -64.5q0 -50 -38.5 -86.5t-88.5 -36.5h-520l-66 -366h387q38 0 63 -26t25 -64q0 -47 -38.5 -83t-86.5 -36h-387l-65 -377h542q39 0 64 -25.5t25 -64.5q0 -50 -38.5 -86.5t-88.5 -36.5h-662 q-50 0 -78.5 33t-19.5 82l47 264h-342l-281 -348q-38 -47 -92 -47q-44 0 -77.5 33t-33.5 77zM715 596h213l59 340z" />
<glyph unicode="&#xc7;" horiz-adv-x="1310" d="M172 502q0 277 92 480.5t270 314t424 110.5q174 0 289 -67t166 -169q12 -27 12 -51q0 -46 -32 -78t-78 -32q-58 0 -86 41q-53 72 -125.5 107.5t-181.5 35.5q-110 0 -197 -37.5t-143 -100.5t-93.5 -151t-53 -182.5t-15.5 -200.5q0 -168 82.5 -252t240.5 -84q188 0 340 133 q54 46 95 46q45 0 77.5 -31.5t32.5 -73.5q0 -47 -33 -84q-90 -97 -236 -151t-312 -54h-25l-20 -80q28 7 73 7q75 0 120.5 -39.5t45.5 -110.5q0 -106 -65.5 -168.5t-196.5 -62.5q-89 0 -147 43q-25 19 -25 45q0 22 15.5 37.5t37.5 15.5q13 0 25 -6q53 -29 121 -29q58 0 88 25 t30 84q0 69 -98 69q-18 0 -48 -6t-44 -6q-21 0 -29.5 13t-5.5 32l25 148q-195 31 -303.5 165t-108.5 355z" />
<glyph unicode="&#xc8;" horiz-adv-x="1071" d="M145 119l201 1141q9 50 49.5 84t89.5 34h639q39 0 64.5 -25.5t25.5 -64.5q0 -50 -38.5 -86.5t-88.5 -36.5h-520l-65 -366h387q38 0 63 -26t25 -64q0 -47 -38.5 -83t-86.5 -36h-387l-66 -377h543q39 0 63.5 -25.5t24.5 -64.5q0 -51 -38 -87t-89 -36h-661q-49 0 -77.5 34.5 t-19.5 84.5zM676 1717.5q4 38.5 41 68.5q42 31 74.5 30t50.5 -28l141 -219q31 -50 -14 -90q-44 -40 -84 0l-189 180q-24 20 -20 58.5z" />
<glyph unicode="&#xc9;" horiz-adv-x="1071" d="M145 119l201 1141q9 50 49.5 84t89.5 34h639q39 0 64.5 -25.5t25.5 -64.5q0 -50 -38.5 -86.5t-88.5 -36.5h-520l-65 -366h387q38 0 63 -26t25 -64q0 -47 -38.5 -83t-86.5 -36h-387l-66 -377h543q39 0 63.5 -25.5t24.5 -64.5q0 -51 -38 -87t-89 -36h-661q-49 0 -77.5 34.5 t-19.5 84.5zM699 1526q3 24 24 45l209 221q26 29 62 28t63 -34q29 -38 23.5 -70t-36.5 -57l-233 -180q-54 -40 -94 0q-21 23 -18 47z" />
<glyph unicode="&#xca;" horiz-adv-x="1071" d="M145 119l201 1141q9 50 49.5 84t89.5 34h639q39 0 64.5 -25.5t25.5 -64.5q0 -50 -38.5 -86.5t-88.5 -36.5h-520l-65 -366h387q38 0 63 -26t25 -64q0 -47 -38.5 -83t-86.5 -36h-387l-66 -377h543q39 0 63.5 -25.5t24.5 -64.5q0 -51 -38 -87t-89 -36h-661q-49 0 -77.5 34.5 t-19.5 84.5zM567 1546q0 48 43 70l215 119q34 18 56 18q25 0 47 -16l159 -129q31 -25 31 -64q0 -34 -23 -57t-57 -23q-29 0 -49 17l-125 102l-168 -104q-22 -15 -49 -15q-34 0 -57 23.5t-23 58.5z" />
<glyph unicode="&#xcb;" horiz-adv-x="1071" d="M145 119l201 1141q9 50 49.5 84t89.5 34h639q39 0 64.5 -25.5t25.5 -64.5q0 -50 -38.5 -86.5t-88.5 -36.5h-520l-65 -366h387q38 0 63 -26t25 -64q0 -47 -38.5 -83t-86.5 -36h-387l-66 -377h543q39 0 63.5 -25.5t24.5 -64.5q0 -51 -38 -87t-89 -36h-661q-49 0 -77.5 34.5 t-19.5 84.5zM563 1597q0 64 31.5 98t91.5 34q86 0 86 -82q0 -63 -32 -97t-91 -34q-86 0 -86 81zM934 1597q0 64 31.5 98t91.5 34q86 0 86 -82q0 -63 -32 -97t-91 -34q-86 0 -86 81z" />
<glyph unicode="&#xcc;" horiz-adv-x="483" d="M141 102l207 1174q9 50 49.5 84.5t89.5 34.5q50 0 79 -35t20 -84l-207 -1174q-9 -49 -50 -83.5t-91 -34.5t-78 34.5t-19 83.5zM358.5 1717.5q3.5 38.5 40.5 68.5q42 31 74.5 30t50.5 -28l142 -219q31 -49 -15 -90q-44 -40 -84 0l-188 180q-24 20 -20.5 58.5z" />
<glyph unicode="&#xcd;" horiz-adv-x="483" d="M141 102l207 1174q9 50 49.5 84.5t89.5 34.5q50 0 79 -35t20 -84l-207 -1174q-9 -49 -50 -83.5t-91 -34.5t-78 34.5t-19 83.5zM375 1526q3 24 24 45l209 221q26 29 62 28t63 -34q29 -38 24 -70t-36 -57l-234 -180q-54 -40 -94 0q-21 23 -18 47z" />
<glyph unicode="&#xce;" horiz-adv-x="483" d="M141 102l207 1174q9 50 49.5 84.5t89.5 34.5q50 0 79 -35t20 -84l-207 -1174q-9 -49 -50 -83.5t-91 -34.5t-78 34.5t-19 83.5zM240 1546q0 48 43 70l215 119q34 18 55 18q25 0 47 -16l160 -129q31 -25 31 -64q0 -34 -23 -57t-57 -23q-29 0 -49 17l-125 102l-168 -104 q-23 -15 -50 -15q-34 0 -56.5 23.5t-22.5 58.5z" />
<glyph unicode="&#xcf;" horiz-adv-x="483" d="M141 102l207 1174q9 50 49.5 84.5t89.5 34.5q50 0 79 -35t20 -84l-207 -1174q-9 -49 -50 -83.5t-91 -34.5t-78 34.5t-19 83.5zM244 1597q0 64 31.5 98t91.5 34q86 0 86 -82q0 -63 -32 -97t-91 -34q-86 0 -86 81zM614 1597q0 64 31.5 98t91.5 34q86 0 86 -82 q0 -63 -32 -97t-91 -34q-86 0 -86 81z" />
<glyph unicode="&#xd0;" horiz-adv-x="1300" d="M160 700q0 43 34 75t78 32h43l80 453q9 49 49.5 83.5t90.5 34.5h276q269 0 416 -133.5t147 -410.5q0 -403 -207.5 -618.5t-582.5 -215.5h-293q-49 0 -77 34.5t-19 84.5l88 499h-43q-35 0 -57.5 24t-22.5 58zM449 213h157q249 0 383.5 156t134.5 446q0 185 -89 267.5 t-261 82.5h-158l-63 -358h291q33 0 55.5 -24t22.5 -58q0 -42 -34 -74.5t-77 -32.5h-291z" />
<glyph unicode="&#xd1;" horiz-adv-x="1275" d="M131 100l207 1178q9 49 46 83t89 34q61 0 86 -49l453 -879l143 811q7 47 48.5 82t88.5 35t76 -35t21 -82l-209 -1178q-7 -47 -48.5 -81.5t-89.5 -34.5q-29 0 -52 14t-34 37l-448 885l-146 -820q-7 -47 -48.5 -81.5t-88.5 -34.5t-75 34.5t-19 81.5zM590 1575q0 25 12 45 q57 94 197 94q62 0 140.5 -34.5t111.5 -34.5q24 0 57 38q26 29 61 29q34 0 57 -23t23 -57q0 -25 -12 -45q-57 -94 -195 -94q-49 0 -97 17.5t-85.5 35t-62.5 17.5q-32 0 -62 -35q-30 -33 -65 -33q-34 0 -57 23t-23 57z" />
<glyph unicode="&#xd2;" horiz-adv-x="1437" d="M172 487q0 -256 139 -386t404 -130q192 0 344 69t249.5 192.5t149 291t51.5 367.5q0 256 -138.5 386t-403.5 130q-192 0 -344 -69t-250 -192.5t-149.5 -291t-51.5 -367.5zM420 522q0 101 17 194.5t56 181.5t96.5 153t145 104t195.5 39q332 0 332 -338q0 -101 -17 -194.5 t-56 -181.5t-96.5 -153t-145 -104t-195.5 -39q-332 0 -332 338zM836 1717.5q4 38.5 41 68.5q42 31 74 30t50 -28l142 -219q31 -49 -15 -90q-44 -40 -84 0l-188 180q-24 20 -20 58.5z" />
<glyph unicode="&#xd3;" horiz-adv-x="1437" d="M172 487q0 -256 139 -386t404 -130q192 0 344 69t249.5 192.5t149 291t51.5 367.5q0 256 -138.5 386t-403.5 130q-192 0 -344 -69t-250 -192.5t-149.5 -291t-51.5 -367.5zM420 522q0 101 17 194.5t56 181.5t96.5 153t145 104t195.5 39q332 0 332 -338q0 -101 -17 -194.5 t-56 -181.5t-96.5 -153t-145 -104t-195.5 -39q-332 0 -332 338zM848 1526q3 24 24 45l209 221q26 29 62 28t63 -34q29 -38 24 -70t-36 -57l-233 -180q-54 -41 -95 0q-21 23 -18 47z" />
<glyph unicode="&#xd4;" horiz-adv-x="1437" d="M172 487q0 -256 139 -386t404 -130q192 0 344 69t249.5 192.5t149 291t51.5 367.5q0 256 -138.5 386t-403.5 130q-192 0 -344 -69t-250 -192.5t-149.5 -291t-51.5 -367.5zM420 522q0 101 17 194.5t56 181.5t96.5 153t145 104t195.5 39q332 0 332 -338q0 -101 -17 -194.5 t-56 -181.5t-96.5 -153t-145 -104t-195.5 -39q-332 0 -332 338zM713 1546q0 48 43 70l215 119q35 18 55 18q25 0 47 -16l160 -129q31 -25 31 -64q0 -34 -23 -57t-57 -23q-29 0 -49 17l-125 102l-168 -104q-23 -15 -49 -15q-34 0 -57 23.5t-23 58.5z" />
<glyph unicode="&#xd5;" horiz-adv-x="1437" d="M172 487q0 -256 139 -386t404 -130q192 0 344 69t249.5 192.5t149 291t51.5 367.5q0 256 -138.5 386t-403.5 130q-192 0 -344 -69t-250 -192.5t-149.5 -291t-51.5 -367.5zM420 522q0 101 17 194.5t56 181.5t96.5 153t145 104t195.5 39q332 0 332 -338q0 -101 -17 -194.5 t-56 -181.5t-96.5 -153t-145 -104t-195.5 -39q-332 0 -332 338zM672 1575q0 25 12 45q57 94 197 94q62 0 140.5 -34.5t111.5 -34.5q24 0 57 38q26 29 61 29q34 0 57 -23t23 -57q0 -25 -12 -45q-57 -94 -195 -94q-49 0 -97 17.5t-85.5 35t-62.5 17.5q-32 0 -62 -35 q-30 -33 -65 -33q-34 0 -57 23t-23 57z" />
<glyph unicode="&#xd6;" horiz-adv-x="1437" d="M172 487q0 -256 139 -386t404 -130q192 0 344 69t249.5 192.5t149 291t51.5 367.5q0 256 -138.5 386t-403.5 130q-192 0 -344 -69t-250 -192.5t-149.5 -291t-51.5 -367.5zM420 522q0 101 17 194.5t56 181.5t96.5 153t145 104t195.5 39q332 0 332 -338q0 -101 -17 -194.5 t-56 -181.5t-96.5 -153t-145 -104t-195.5 -39q-332 0 -332 338zM713 1597q0 64 31.5 98t91.5 34q86 0 86 -82q0 -63 -32 -97t-91 -34q-86 0 -86 81zM1083 1597q0 64 31.5 98t91.5 34q86 0 86 -82q0 -63 -32 -97t-91 -34q-86 0 -86 81z" />
<glyph unicode="&#xd7;" horiz-adv-x="761" d="M31 182q0 51 45 84l248 191l-174 192q-25 25 -25 66t29.5 70.5t70.5 29.5q47 0 70 -29l184 -198l244 203q30 24 65 24q41 0 71 -29.5t30 -70.5q0 -49 -39 -80l-248 -191l170 -198q23 -30 23 -64q0 -41 -30 -70.5t-71 -29.5q-47 0 -73 33l-175 198l-243 -202 q-34 -29 -72 -29q-41 0 -70.5 29.5t-29.5 70.5z" />
<glyph unicode="&#xd8;" horiz-adv-x="1437" d="M106 37q0 40 33 69l94 97q-61 113 -61 284q0 200 51.5 367.5t149.5 291t250 192.5t344 69q230 0 364 -98l82 84q32 32 70 32q37 0 63.5 -26.5t26.5 -63.5q0 -40 -33 -69l-92 -92q61 -113 61 -283q0 -200 -51.5 -367.5t-149 -291t-249.5 -192.5t-344 -69q-227 0 -363 95 l-86 -86q-33 -33 -69 -33q-37 0 -64 26.5t-27 63.5zM420 522q0 -66 12 -121l721 729q-79 64 -223 64q-108 0 -195.5 -39t-145 -104t-96.5 -153t-56 -181.5t-17 -194.5zM530 246q80 -62 222 -62q108 0 195.5 39t145 104t96.5 153t56 181.5t17 194.5q0 58 -13 115z" />
<glyph unicode="&#xd9;" horiz-adv-x="1267" d="M195 334q0 52 10 117l143 825q9 50 49.5 84.5t89.5 34.5q50 0 79 -35t20 -84l-146 -825q-6 -35 -6 -76q0 -195 238 -195q275 0 325 271l146 825q9 50 49.5 84.5t89.5 34.5q50 0 78.5 -35t19.5 -84l-145 -825q-11 -64 -28 -117t-45.5 -110.5t-72 -100.5t-103 -78.5 t-144.5 -54.5t-189 -19q-125 0 -216 29t-142.5 80.5t-75.5 114.5t-24 139zM733.5 1717.5q3.5 38.5 40.5 68.5q42 31 74.5 30t50.5 -28l141 -219q31 -50 -14 -90q-44 -40 -84 0l-188 180q-24 20 -20.5 58.5z" />
<glyph unicode="&#xda;" horiz-adv-x="1267" d="M195 334q0 52 10 117l143 825q9 50 49.5 84.5t89.5 34.5q50 0 79 -35t20 -84l-146 -825q-6 -35 -6 -76q0 -195 238 -195q275 0 325 271l146 825q9 50 49.5 84.5t89.5 34.5q50 0 78.5 -35t19.5 -84l-145 -825q-11 -64 -28 -117t-45.5 -110.5t-72 -100.5t-103 -78.5 t-144.5 -54.5t-189 -19q-125 0 -216 29t-142.5 80.5t-75.5 114.5t-24 139zM797 1526q3 24 24 45l209 221q26 29 62 28t63 -34q29 -38 24 -70t-36 -57l-234 -180q-54 -40 -94 0q-21 23 -18 47z" />
<glyph unicode="&#xdb;" horiz-adv-x="1267" d="M195 334q0 52 10 117l143 825q9 50 49.5 84.5t89.5 34.5q50 0 79 -35t20 -84l-146 -825q-6 -35 -6 -76q0 -195 238 -195q275 0 325 271l146 825q9 50 49.5 84.5t89.5 34.5q50 0 78.5 -35t19.5 -84l-145 -825q-11 -64 -28 -117t-45.5 -110.5t-72 -100.5t-103 -78.5 t-144.5 -54.5t-189 -19q-125 0 -216 29t-142.5 80.5t-75.5 114.5t-24 139zM643 1546q0 48 43 70l215 119q34 18 55 18q26 0 48 -16l159 -129q31 -25 31 -64q0 -34 -23 -57t-57 -23q-29 0 -49 17l-125 102l-168 -104q-22 -15 -49 -15q-34 0 -57 23.5t-23 58.5z" />
<glyph unicode="&#xdc;" horiz-adv-x="1267" d="M195 334q0 52 10 117l143 825q9 50 49.5 84.5t89.5 34.5q50 0 79 -35t20 -84l-146 -825q-6 -35 -6 -76q0 -195 238 -195q275 0 325 271l146 825q9 50 49.5 84.5t89.5 34.5q50 0 78.5 -35t19.5 -84l-145 -825q-11 -64 -28 -117t-45.5 -110.5t-72 -100.5t-103 -78.5 t-144.5 -54.5t-189 -19q-125 0 -216 29t-142.5 80.5t-75.5 114.5t-24 139zM637 1597q0 64 31.5 98t91.5 34q86 0 86 -82q0 -63 -32 -97t-91 -34q-86 0 -86 81zM1008 1597q0 132 122 132q87 0 87 -82q0 -63 -32 -97t-91 -34q-86 0 -86 81z" />
<glyph unicode="&#xdd;" horiz-adv-x="1134" d="M262 1276q0 50 35 84.5t84 34.5q74 0 102 -60l236 -481l389 492q40 49 96 49q50 0 84.5 -34.5t34.5 -84.5q0 -40 -31 -80l-495 -567l-92 -527q-9 -51 -47.5 -84.5t-92.5 -33.5q-53 0 -80 34t-18 84l92 527l-287 598q-10 20 -10 49zM721 1526q3 24 24 45l209 221 q26 29 62 28t63 -34q29 -38 24 -70t-36 -57l-233 -180q-54 -41 -95 0q-21 23 -18 47z" />
<glyph unicode="&#xde;" horiz-adv-x="1130" d="M141 102l207 1174q9 50 49.5 84.5t89.5 34.5t78 -34.5t21 -84.5l-25 -139h273q165 0 264.5 -87t99.5 -253q0 -149 -70 -265t-186.5 -176.5t-257.5 -60.5h-270l-35 -193q-9 -49 -50 -83.5t-91 -34.5t-78 34.5t-19 83.5zM451 508h254q109 0 176 71.5t67 180.5 q0 79 -45 121.5t-127 42.5h-254z" />
<glyph unicode="&#xdf;" horiz-adv-x="1204" d="M-223 -330q0 44 34.5 77.5t79.5 33.5q174 0 213 221l129 743h-40q-33 0 -55.5 22.5t-22.5 55.5q0 42 33.5 74.5t76.5 32.5h41l13 71q15 86 51.5 156.5t95.5 126.5t147.5 87.5t198.5 31.5q160 0 255 -82.5t95 -200.5q0 -69 -26.5 -123t-66.5 -85.5t-86 -60.5t-86 -50 t-66.5 -52.5t-26.5 -68.5q0 -36 45 -65.5t109 -55t128 -56t109 -83t45 -121.5q0 -151 -109 -236.5t-303 -85.5q-120 0 -219.5 51t-136.5 107q-14 22 -14 49q0 40 29 69.5t69 29.5q34 0 68 -27q93 -82 221 -82q75 0 121.5 25.5t46.5 66.5q0 30 -24 53.5t-62 40.5t-84.5 34.5 t-93 39.5t-84.5 49t-62 70.5t-24 97.5q0 51 19.5 95t51.5 75.5t70 59.5t76 52.5t70 48t51.5 53t19.5 61.5q0 44 -36 79t-122 35q-93 0 -156.5 -52t-78.5 -140l-176 -1004q-13 -71 -36.5 -132.5t-62.5 -116t-90.5 -93.5t-123 -61.5t-156.5 -22.5q-35 0 -58.5 24t-23.5 58z " />
<glyph unicode="&#xe0;" horiz-adv-x="1011" d="M123 319q0 278 154.5 458.5t384.5 180.5q64 0 118.5 -20.5t87.5 -52.5q33 61 107 61q46 0 72 -32t18 -78l-131 -742q-8 -47 -43.5 -78.5t-85.5 -31.5q-47 0 -73.5 31t-16.5 79l10 47q-102 -168 -303 -168q-143 0 -221 95t-78 251zM348 340q0 -79 37.5 -130.5t103.5 -51.5 q111 0 186.5 83t102.5 226l45 250q-67 49 -153 49q-137 0 -229.5 -114t-92.5 -312zM543 1291.5q4 38.5 41 68.5q42 31 74.5 30t50.5 -28l141 -219q31 -50 -14 -90q-44 -40 -84 0l-189 180q-24 20 -20 58.5z" />
<glyph unicode="&#xe1;" horiz-adv-x="1011" d="M123 319q0 278 154.5 458.5t384.5 180.5q64 0 118.5 -20.5t87.5 -52.5q33 61 107 61q46 0 72 -32t18 -78l-131 -742q-8 -47 -43.5 -78.5t-85.5 -31.5q-47 0 -73.5 31t-16.5 79l10 47q-102 -168 -303 -168q-143 0 -221 95t-78 251zM348 340q0 -79 37.5 -130.5t103.5 -51.5 q111 0 186.5 83t102.5 226l45 250q-67 49 -153 49q-137 0 -229.5 -114t-92.5 -312zM582 1100q3 24 24 45l209 221q26 29 62 28t63 -34q29 -38 24 -70t-36 -57l-234 -180q-54 -40 -94 0q-21 23 -18 47z" />
<glyph unicode="&#xe2;" horiz-adv-x="1011" d="M123 319q0 278 154.5 458.5t384.5 180.5q64 0 118.5 -20.5t87.5 -52.5q33 61 107 61q46 0 72 -32t18 -78l-131 -742q-8 -47 -43.5 -78.5t-85.5 -31.5q-47 0 -73.5 31t-16.5 79l10 47q-102 -168 -303 -168q-143 0 -221 95t-78 251zM348 340q0 -79 37.5 -130.5t103.5 -51.5 q111 0 186.5 83t102.5 226l45 250q-67 49 -153 49q-137 0 -229.5 -114t-92.5 -312zM446 1139q0 47 43 69l216 119q36 19 55 19q23 0 47 -17l160 -129q30 -24 30 -63q0 -34 -22.5 -57t-56.5 -23q-31 0 -50 16l-125 103l-168 -105q-21 -14 -49 -14q-34 0 -57 23.5t-23 58.5z " />
<glyph unicode="&#xe3;" horiz-adv-x="1011" d="M123 319q0 278 154.5 458.5t384.5 180.5q64 0 118.5 -20.5t87.5 -52.5q33 61 107 61q46 0 72 -32t18 -78l-131 -742q-8 -47 -43.5 -78.5t-85.5 -31.5q-47 0 -73.5 31t-16.5 79l10 47q-102 -168 -303 -168q-143 0 -221 95t-78 251zM348 340q0 -79 37.5 -130.5t103.5 -51.5 q111 0 186.5 83t102.5 226l45 250q-67 49 -153 49q-137 0 -229.5 -114t-92.5 -312zM403 1157q0 23 13 45q57 94 196 94q62 0 140.5 -34.5t111.5 -34.5q24 0 58 39q25 28 61 28q34 0 57 -23t23 -57q0 -25 -12 -45q-57 -94 -195 -94q-49 0 -97 17.5t-86 35t-63 17.5 q-31 0 -61 -35q-30 -33 -66 -33q-34 0 -57 23t-23 57z" />
<glyph unicode="&#xe4;" horiz-adv-x="1009" d="M121 319q0 278 154 458.5t384 180.5q64 0 119 -21t88 -52q33 61 107 61q46 0 72 -32t18 -78l-131 -742q-8 -47 -43.5 -78.5t-85.5 -31.5q-47 0 -73.5 31t-16.5 79l10 47q-102 -168 -303 -168q-143 0 -221 95t-78 251zM346 340q0 -79 37.5 -130.5t103.5 -51.5 q111 0 186.5 83t102.5 226l45 250q-67 49 -153 49q-137 0 -229.5 -114t-92.5 -312zM438 1149q0 131 123 131q86 0 86 -82q0 -63 -32 -97t-91 -34q-86 0 -86 82zM809 1149q0 131 123 131q86 0 86 -82q0 -63 -32 -97t-91 -34q-86 0 -86 82z" />
<glyph unicode="&#xe5;" horiz-adv-x="1011" d="M123 319q0 278 154.5 458.5t384.5 180.5q64 0 118.5 -20.5t87.5 -52.5q33 61 107 61q46 0 72 -32t18 -78l-131 -742q-8 -47 -43.5 -78.5t-85.5 -31.5q-47 0 -73.5 31t-16.5 79l10 47q-102 -168 -303 -168q-143 0 -221 95t-78 251zM348 340q0 -79 37.5 -130.5t103.5 -51.5 q111 0 186.5 83t102.5 226l45 250q-67 49 -153 49q-137 0 -229.5 -114t-92.5 -312zM520 1180q0 110 67 181t189 71q92 0 138.5 -40t46.5 -114q0 -110 -67 -181t-189 -71q-92 0 -138.5 40t-46.5 114zM635 1198q0 -70 88 -70q60 0 91.5 36t31.5 96q0 69 -88 69 q-60 0 -91.5 -35.5t-31.5 -95.5z" />
<glyph unicode="&#xe6;" horiz-adv-x="1591" d="M123 319q0 278 154.5 458.5t384.5 180.5q188 0 286 -139q145 139 359 139q155 0 246.5 -72t91.5 -179q0 -50 -12 -90.5t-52.5 -85t-109 -74.5t-191 -50t-289.5 -20q-6 -24 -6 -57q0 -158 193 -158q104 0 211 64q39 22 65 22q40 0 68 -28t28 -68q0 -47 -41 -80 q-135 -109 -358 -109q-134 0 -225 54t-129 161q-19 -35 -49 -69t-74.5 -68.5t-108 -56t-133.5 -21.5q-153 0 -231 93.5t-78 252.5zM348 340q0 -79 37.5 -130.5t103.5 -51.5q105 0 180.5 75t106.5 205q15 145 82 264q-89 64 -188 64q-137 0 -229.5 -114t-92.5 -312zM1018 553 q78 0 141.5 5.5t105 14.5t72.5 22t47.5 25.5t26 27t12 25t2.5 21.5q0 30 -31 54t-100 24q-97 0 -168.5 -54.5t-107.5 -164.5z" />
<glyph unicode="&#xe7;" horiz-adv-x="923" d="M129 344q0 122 32 229.5t95.5 195t171 138.5t246.5 51q64 0 119.5 -16.5t92.5 -43t59.5 -49t35.5 -44.5q14 -22 14 -51q0 -40 -29.5 -69.5t-70.5 -29.5q-47 0 -74 35q-71 80 -182 80q-131 0 -208 -116.5t-77 -291.5q0 -200 178 -200q27 0 51 4.5t49.5 16t36 17t39.5 24.5 t31 20q34 20 62 20q40 0 68 -28t28 -68q0 -47 -45 -82q-145 -113 -352 -113h-27l-20 -82q28 7 73 7q75 0 120.5 -39.5t45.5 -110.5q0 -106 -65.5 -168.5t-196.5 -62.5q-89 0 -147 43q-25 19 -25 45q0 22 15.5 37.5t37.5 15.5q13 0 25 -6q53 -29 121 -29q58 0 88 25t30 84 q0 69 -98 69q-18 0 -48 -6t-44 -6q-21 0 -29.5 13t-5.5 32l27 154q-119 28 -183.5 118t-64.5 238z" />
<glyph unicode="&#xe8;" horiz-adv-x="950" d="M131 354q0 174 65.5 311t188 215t281.5 78q155 0 246.5 -72t91.5 -179q0 -50 -12 -90.5t-52.5 -85t-109 -74.5t-191 -50t-289.5 -20q-6 -24 -6 -57q0 -158 193 -158q104 0 211 64q39 22 65 22q40 0 68 -28t28 -68q0 -47 -41 -80q-135 -109 -358 -109q-178 0 -278.5 95.5 t-100.5 285.5zM377 553q78 0 141.5 5.5t105 14.5t72.5 22t47.5 25.5t26 27t12 25t2.5 21.5q0 30 -31 54t-100 24q-97 0 -168.5 -54.5t-107.5 -164.5zM539 1291.5q4 38.5 41 68.5q42 31 74.5 30t50.5 -28l141 -219q31 -49 -15 -90q-43 -40 -83 0l-189 180q-24 20 -20 58.5z " />
<glyph unicode="&#xe9;" horiz-adv-x="950" d="M131 354q0 174 65.5 311t188 215t281.5 78q155 0 246.5 -72t91.5 -179q0 -50 -12 -90.5t-52.5 -85t-109 -74.5t-191 -50t-289.5 -20q-6 -24 -6 -57q0 -158 193 -158q104 0 211 64q39 22 65 22q40 0 68 -28t28 -68q0 -47 -41 -80q-135 -109 -358 -109q-178 0 -278.5 95.5 t-100.5 285.5zM377 553q78 0 141.5 5.5t105 14.5t72.5 22t47.5 25.5t26 27t12 25t2.5 21.5q0 30 -31 54t-100 24q-97 0 -168.5 -54.5t-107.5 -164.5zM553.5 1099.5q2.5 23.5 24.5 45.5l208 221q26 29 62 28t63 -34q29 -38 24 -70t-36 -57l-233 -180q-54 -41 -95 0 q-20 23 -17.5 46.5z" />
<glyph unicode="&#xea;" horiz-adv-x="950" d="M131 354q0 174 65.5 311t188 215t281.5 78q155 0 246.5 -72t91.5 -179q0 -50 -12 -90.5t-52.5 -85t-109 -74.5t-191 -50t-289.5 -20q-6 -24 -6 -57q0 -158 193 -158q104 0 211 64q39 22 65 22q40 0 68 -28t28 -68q0 -47 -41 -80q-135 -109 -358 -109q-178 0 -278.5 95.5 t-100.5 285.5zM377 553q78 0 141.5 5.5t105 14.5t72.5 22t47.5 25.5t26 27t12 25t2.5 21.5q0 30 -31 54t-100 24q-97 0 -168.5 -54.5t-107.5 -164.5zM428 1139q0 47 43 69l215 119q36 19 55 19q23 0 47 -17l160 -129q31 -25 31 -63q0 -34 -23 -57t-57 -23q-30 0 -49 16 l-125 103l-168 -105q-21 -14 -49 -14q-34 0 -57 23.5t-23 58.5z" />
<glyph unicode="&#xeb;" horiz-adv-x="950" d="M131 354q0 174 65.5 311t188 215t281.5 78q155 0 246.5 -72t91.5 -179q0 -50 -12 -90.5t-52.5 -85t-109 -74.5t-191 -50t-289.5 -20q-6 -24 -6 -57q0 -158 193 -158q104 0 211 64q39 22 65 22q40 0 68 -28t28 -68q0 -47 -41 -80q-135 -109 -358 -109q-178 0 -278.5 95.5 t-100.5 285.5zM377 553q78 0 141.5 5.5t105 14.5t72.5 22t47.5 25.5t26 27t12 25t2.5 21.5q0 30 -31 54t-100 24q-97 0 -168.5 -54.5t-107.5 -164.5zM422 1149q0 131 123 131q86 0 86 -82q0 -63 -32 -97t-91 -34q-86 0 -86 82zM793 1149q0 131 122 131q86 0 86 -82 q0 -63 -31.5 -97t-90.5 -34q-86 0 -86 82z" />
<glyph unicode="&#xec;" horiz-adv-x="436" d="M129 94l131 742q8 47 44 78.5t87 31.5q46 0 72 -32t18 -78l-131 -742q-8 -47 -43.5 -78.5t-85.5 -31.5q-46 0 -72.5 32t-19.5 78zM238 1291.5q4 38.5 41 68.5q42 31 74 30t50 -28l142 -219q31 -49 -15 -90q-44 -40 -84 0l-188 180q-24 20 -20 58.5z" />
<glyph unicode="&#xed;" horiz-adv-x="436" d="M129 94l131 742q8 47 44 78.5t87 31.5q46 0 72 -32t18 -78l-131 -742q-8 -47 -43.5 -78.5t-85.5 -31.5q-46 0 -72.5 32t-19.5 78zM279 1100q3 24 24 45l209 221q26 29 62 28t63 -34q29 -38 24 -70t-36 -57l-234 -180q-54 -40 -94 0q-21 23 -18 47z" />
<glyph unicode="&#xee;" horiz-adv-x="436" d="M129 94l131 742q8 47 44 78.5t87 31.5q46 0 72 -32t18 -78l-131 -742q-8 -47 -43.5 -78.5t-85.5 -31.5q-46 0 -72.5 32t-19.5 78zM147 1139q0 47 43 69l216 119q36 19 55 19q23 0 47 -17l160 -129q30 -24 30 -63q0 -34 -23 -57t-57 -23q-30 0 -49 16l-125 103l-168 -105 q-21 -14 -49 -14q-34 0 -57 23.5t-23 58.5z" />
<glyph unicode="&#xef;" horiz-adv-x="436" d="M129 94l131 742q8 47 44 78.5t87 31.5q46 0 72 -32t18 -78l-131 -742q-8 -47 -43.5 -78.5t-85.5 -31.5q-46 0 -72.5 32t-19.5 78zM141 1149q0 131 123 131q86 0 86 -82q0 -63 -32 -97t-91 -34q-86 0 -86 82zM512 1149q0 131 123 131q86 0 86 -82q0 -63 -32 -97t-91 -34 q-86 0 -86 82z" />
<glyph unicode="&#xf0;" horiz-adv-x="1019" d="M129 330q0 288 149.5 458t399.5 170q112 0 182 -43q-3 102 -49 183l-96 -60q-25 -14 -49 -14q-35 0 -61.5 26.5t-26.5 61.5q0 25 12.5 46t32.5 32l69 43q-37 29 -114 65q-23 10 -36.5 31t-13.5 45q0 34 25 59t59 25q24 0 47 -10q123 -56 195 -123l76 49q22 15 47 15 q37 0 63.5 -27t26.5 -64q0 -48 -45 -75l-59 -37q104 -178 104 -434q0 -77 -7 -150.5t-24.5 -152.5t-45 -146.5t-72 -129.5t-101.5 -105.5t-137 -69t-176 -25.5q-178 0 -276.5 89.5t-98.5 267.5zM354 362q0 -200 183 -200q76 0 134.5 37.5t91 98.5t48.5 130t16 141 q0 201 -182 201q-76 0 -134.5 -37.5t-91.5 -99t-49 -130.5t-16 -141z" />
<glyph unicode="&#xf1;" horiz-adv-x="1021" d="M117 90l131 746q7 45 46 77.5t85 32.5q40 0 66 -26t26 -64l-2 -22q44 51 121 87.5t172 36.5q148 0 215 -70.5t67 -185.5q0 -42 -10 -100l-90 -512q-7 -45 -45 -75.5t-84 -30.5q-50 0 -75.5 29.5t-16.5 76.5l84 471q6 35 6 60q0 137 -151 137q-207 0 -242 -211l-82 -457 q-7 -46 -44.5 -76t-84.5 -30q-49 0 -75 28t-17 78zM408 1157q0 25 12 45q57 94 196 94q62 0 140.5 -34.5t111.5 -34.5q24 0 58 39q25 28 61 28q34 0 57 -23t23 -57q0 -25 -12 -45q-57 -94 -195 -94q-49 0 -97 17.5t-86 35t-63 17.5q-31 0 -61 -35q-30 -33 -66 -33 q-34 0 -56.5 23t-22.5 57z" />
<glyph unicode="&#xf2;" horiz-adv-x="1015" d="M129 330q0 97 19.5 186.5t62.5 170.5t105.5 141t155.5 95t206 35q178 0 276.5 -89.5t98.5 -266.5q0 -97 -19.5 -186.5t-62.5 -171t-105.5 -141t-155.5 -95t-206 -35.5q-178 0 -276.5 89.5t-98.5 267.5zM354 362q0 -200 183 -200q76 0 134.5 37.5t91 98.5t48.5 130t16 141 q0 201 -182 201q-76 0 -134.5 -37.5t-91.5 -99t-49 -130.5t-16 -141zM549 1291.5q4 38.5 41 68.5q42 31 74.5 30t50.5 -28l141 -219q31 -50 -14 -90q-44 -40 -84 0l-189 180q-24 20 -20 58.5z" />
<glyph unicode="&#xf3;" horiz-adv-x="1015" d="M129 330q0 97 19.5 186.5t62.5 170.5t105.5 141t155.5 95t206 35q178 0 276.5 -89.5t98.5 -266.5q0 -97 -19.5 -186.5t-62.5 -171t-105.5 -141t-155.5 -95t-206 -35.5q-178 0 -276.5 89.5t-98.5 267.5zM354 362q0 -200 183 -200q76 0 134.5 37.5t91 98.5t48.5 130t16 141 q0 201 -182 201q-76 0 -134.5 -37.5t-91.5 -99t-49 -130.5t-16 -141zM578 1100q3 24 24 45l209 221q26 29 62 28t63 -34q29 -38 24 -70t-36 -57l-234 -180q-54 -40 -94 0q-21 23 -18 47z" />
<glyph unicode="&#xf4;" horiz-adv-x="1015" d="M129 330q0 97 19.5 186.5t62.5 170.5t105.5 141t155.5 95t206 35q178 0 276.5 -89.5t98.5 -266.5q0 -97 -19.5 -186.5t-62.5 -171t-105.5 -141t-155.5 -95t-206 -35.5q-178 0 -276.5 89.5t-98.5 267.5zM354 362q0 -200 183 -200q76 0 134.5 37.5t91 98.5t48.5 130t16 141 q0 201 -182 201q-76 0 -134.5 -37.5t-91.5 -99t-49 -130.5t-16 -141zM436 1139q0 47 43 69l215 119q36 19 56 19q23 0 47 -17l159 -129q31 -25 31 -63q0 -34 -23 -57t-57 -23q-30 0 -49 16l-125 103l-168 -105q-21 -14 -49 -14q-34 0 -57 23.5t-23 58.5z" />
<glyph unicode="&#xf5;" horiz-adv-x="1015" d="M129 330q0 97 19.5 186.5t62.5 170.5t105.5 141t155.5 95t206 35q178 0 276.5 -89.5t98.5 -266.5q0 -97 -19.5 -186.5t-62.5 -171t-105.5 -141t-155.5 -95t-206 -35.5q-178 0 -276.5 89.5t-98.5 267.5zM354 362q0 -200 183 -200q76 0 134.5 37.5t91 98.5t48.5 130t16 141 q0 201 -182 201q-76 0 -134.5 -37.5t-91.5 -99t-49 -130.5t-16 -141zM393 1157q0 23 13 45q57 94 196 94q62 0 140.5 -34.5t111.5 -34.5q16 0 27.5 9t29.5 30q25 28 62 28q34 0 57 -23t23 -57q0 -23 -13 -45q-57 -94 -194 -94q-49 0 -97 17.5t-86 35t-63 17.5q-31 0 -61 -35 q-30 -33 -66 -33q-34 0 -57 23t-23 57z" />
<glyph unicode="&#xf6;" horiz-adv-x="1015" d="M129 330q0 97 19.5 186.5t62.5 170.5t105.5 141t155.5 95t206 35q178 0 276.5 -89.5t98.5 -266.5q0 -97 -19.5 -186.5t-62.5 -171t-105.5 -141t-155.5 -95t-206 -35.5q-178 0 -276.5 89.5t-98.5 267.5zM354 362q0 -200 183 -200q76 0 134.5 37.5t91 98.5t48.5 130t16 141 q0 201 -182 201q-76 0 -134.5 -37.5t-91.5 -99t-49 -130.5t-16 -141zM428 1149q0 131 123 131q86 0 86 -82q0 -63 -32 -97t-91 -34q-86 0 -86 82zM799 1149q0 131 123 131q86 0 86 -82q0 -63 -32 -97t-91 -34q-86 0 -86 82z" />
<glyph unicode="&#xf7;" horiz-adv-x="929" d="M78 436q0 42 34.5 74.5t77.5 32.5h742q33 0 55.5 -24t22.5 -58q0 -42 -34.5 -74.5t-76.5 -32.5h-741q-35 0 -57.5 24t-22.5 58zM381 156q0 51 39 88t92 37q43 0 70.5 -27t27.5 -66q0 -53 -39 -89t-96 -36q-42 0 -68 26.5t-26 66.5zM479 709q0 54 38.5 90.5t92.5 36.5 q44 0 70.5 -26.5t26.5 -68.5q0 -52 -39.5 -88.5t-96.5 -36.5q-41 0 -66.5 26.5t-25.5 66.5z" />
<glyph unicode="&#xf8;" horiz-adv-x="1015" d="M49 66q0 37 29 63l69 61q-18 62 -18 140q0 97 19.5 186.5t62.5 170.5t105.5 141t155.5 95t206 35q162 0 256 -73l57 51q29 25 60 25q34 0 58 -24t24 -58q0 -38 -29 -64l-74 -65q23 -71 23 -148q0 -97 -19.5 -186.5t-62.5 -171t-105.5 -141t-155.5 -95t-206 -35.5 q-168 0 -264 78l-50 -43q-27 -24 -59 -24q-34 0 -58 24t-24 58zM354 373l410 362q-47 35 -119 35q-60 0 -110 -24t-82.5 -63.5t-55 -92t-32.5 -107t-11 -110.5zM410 203q41 -41 127 -41q76 0 134.5 37.5t91 99t48.5 130.5t16 142z" />
<glyph unicode="&#xf9;" d="M145 252q0 38 11 106l84 478q7 45 46 77.5t85 32.5t72 -32t18 -78l-84 -478q-6 -35 -6 -59q0 -59 35 -92t122 -33q184 0 215 184l84 478q7 45 46 77.5t85 32.5t72.5 -32t18.5 -78l-84 -478q-11 -66 -29 -118t-52.5 -104t-82.5 -86t-123 -55.5t-170 -21.5q-191 0 -277 76 t-86 203zM520.5 1291.5q3.5 38.5 40.5 68.5q42 31 74.5 30t50.5 -28l141 -219q31 -50 -14 -90q-44 -40 -84 0l-188 180q-24 20 -20.5 58.5z" />
<glyph unicode="&#xfa;" d="M145 252q0 38 11 106l84 478q7 45 46 77.5t85 32.5t72 -32t18 -78l-84 -478q-6 -35 -6 -59q0 -59 35 -92t122 -33q184 0 215 184l84 478q7 45 46 77.5t85 32.5t72.5 -32t18.5 -78l-84 -478q-11 -66 -29 -118t-52.5 -104t-82.5 -86t-123 -55.5t-170 -21.5q-191 0 -277 76 t-86 203zM574 1100q3 24 24 45l209 221q26 29 62 28t63 -34q29 -38 24 -70t-36 -57l-234 -180q-54 -40 -94 0q-21 23 -18 47z" />
<glyph unicode="&#xfb;" d="M145 252q0 38 11 106l84 478q7 45 46 77.5t85 32.5t72 -32t18 -78l-84 -478q-6 -35 -6 -59q0 -59 35 -92t122 -33q184 0 215 184l84 478q7 45 46 77.5t85 32.5t72.5 -32t18.5 -78l-84 -478q-11 -66 -29 -118t-52.5 -104t-82.5 -86t-123 -55.5t-170 -21.5q-191 0 -277 76 t-86 203zM426 1139q0 47 43 69l215 119q36 19 55 19q23 0 47 -17l160 -129q31 -25 31 -63q0 -34 -23 -57t-57 -23q-30 0 -49 16l-125 103l-168 -105q-21 -14 -49 -14q-34 0 -57 23.5t-23 58.5z" />
<glyph unicode="&#xfc;" d="M145 252q0 38 11 106l84 478q7 45 46 77.5t85 32.5t72 -32t18 -78l-84 -478q-6 -35 -6 -59q0 -59 35 -92t122 -33q184 0 215 184l84 478q7 45 46 77.5t85 32.5t72.5 -32t18.5 -78l-84 -478q-11 -66 -29 -118t-52.5 -104t-82.5 -86t-123 -55.5t-170 -21.5q-191 0 -277 76 t-86 203zM422 1149q0 131 123 131q86 0 86 -82q0 -63 -32 -97t-91 -34q-86 0 -86 82zM793 1149q0 131 122 131q86 0 86 -82q0 -63 -31.5 -97t-90.5 -34q-86 0 -86 82z" />
<glyph unicode="&#xfd;" d="M80 -209q0 94 77.5 158t268.5 129q-264 37 -264 272q0 45 10 107l68 379q7 45 46 77.5t85 32.5t72 -32t18 -78l-68 -379q-6 -34 -6 -60q0 -59 35.5 -92t122.5 -33q186 0 217 185l65 379q7 45 46 77.5t85 32.5t72.5 -32t18.5 -78l-150 -861q-33 -195 -169.5 -291 t-356.5 -96q-127 0 -210 55.5t-83 147.5zM285 -150q0 -42 31 -65t90 -23q107 0 182 60t100 180l39 188q-30 -47 -88 -88t-116.5 -68.5t-113.5 -55t-89.5 -59.5t-34.5 -69zM592 1100q3 24 24 45l209 221q26 29 62 28t63 -34q29 -38 24 -70t-36 -57l-233 -180q-54 -41 -95 0 q-21 23 -18 47z" />
<glyph unicode="&#xfe;" horiz-adv-x="1052" d="M59 -301l291 1649q7 45 46 77.5t85 32.5t72 -32t18 -78l-92 -512q38 47 107.5 84.5t158.5 37.5q345 0 345 -356q0 -181 -60 -322.5t-179 -224t-280 -82.5q-74 0 -135.5 27t-91.5 70l-63 -371q-8 -46 -45.5 -78.5t-83.5 -32.5t-73 32.5t-20 78.5zM391 362q0 -200 182 -200 q76 0 134.5 37.5t91.5 98.5t49 130t16 141q0 201 -182 201q-76 0 -134.5 -37.5t-91.5 -99t-49 -130.5t-16 -141z" />
<glyph unicode="&#xff;" d="M80 -209q0 94 77.5 158t268.5 129q-264 37 -264 272q0 45 10 107l68 379q7 45 46 77.5t85 32.5t72 -32t18 -78l-68 -379q-6 -34 -6 -60q0 -59 35.5 -92t122.5 -33q186 0 217 185l65 379q7 45 46 77.5t85 32.5t72.5 -32t18.5 -78l-150 -861q-33 -195 -169.5 -291 t-356.5 -96q-127 0 -210 55.5t-83 147.5zM285 -150q0 -42 31 -65t90 -23q107 0 182 60t100 180l39 188q-30 -47 -88 -88t-116.5 -68.5t-113.5 -55t-89.5 -59.5t-34.5 -69zM381 1149q0 131 123 131q86 0 86 -82q0 -63 -32 -97t-91 -34q-86 0 -86 82zM752 1149q0 131 122 131 q87 0 87 -82q0 -63 -32 -97t-91 -34q-86 0 -86 82z" />
<glyph unicode="&#x152;" horiz-adv-x="1880" d="M172 487q0 200 51.5 367.5t149.5 291t250 192.5t344 69q164 0 266 -51q25 22 61 22h639q39 0 64.5 -25.5t25.5 -64.5q0 -50 -38.5 -86.5t-88.5 -36.5h-520l-65 -366h387q38 0 63 -26t25 -64q0 -47 -38.5 -83t-86.5 -36h-387l-66 -377h543q39 0 63.5 -25.5t24.5 -64.5 q0 -50 -38.5 -86.5t-88.5 -36.5h-661q-36 0 -54 18q-136 -47 -282 -47q-265 0 -404 130t-139 386zM420 522q0 -338 332 -338q69 0 116 13t107 41l160 909q-80 47 -205 47q-108 0 -195.5 -39t-145 -104t-96.5 -153t-56 -181.5t-17 -194.5z" />
<glyph unicode="&#x153;" horiz-adv-x="1628" d="M129 330q0 97 19.5 186.5t62.5 170.5t105.5 141t155.5 95t206 35q104 0 184 -39.5t127 -109.5q135 149 354 149q155 0 246.5 -72t91.5 -179q0 -35 -5.5 -64.5t-23 -63t-46.5 -60.5t-79 -52.5t-117 -42t-164.5 -27t-217.5 -10.5q-6 -24 -6 -57q0 -158 192 -158 q104 0 211 64q39 22 66 22q40 0 68 -28t28 -68q0 -47 -41 -80q-135 -109 -358 -109q-231 0 -316 152q-75 -73 -160.5 -112.5t-207.5 -39.5q-178 0 -276.5 89.5t-98.5 267.5zM354 362q0 -200 183 -200q76 0 134.5 37.5t91 98.5t48.5 130t16 141q0 201 -182 201 q-76 0 -134.5 -37.5t-91.5 -99t-49 -130.5t-16 -141zM1055 553q78 0 141.5 5.5t105 14.5t72.5 22t47.5 25.5t26 27t12 25t2.5 21.5q0 30 -31 54t-100 24q-97 0 -168.5 -54.5t-107.5 -164.5z" />
<glyph unicode="&#x178;" horiz-adv-x="1134" d="M262 1276q0 50 35 84.5t84 34.5q74 0 102 -60l236 -481l389 492q40 49 96 49q50 0 84.5 -34.5t34.5 -84.5q0 -40 -31 -80l-495 -567l-92 -527q-9 -51 -47.5 -84.5t-92.5 -33.5q-53 0 -80 34t-18 84l92 527l-287 598q-10 20 -10 49zM563 1597q0 64 31.5 98t91.5 34 q86 0 86 -82q0 -63 -32 -97t-91 -34q-86 0 -86 81zM934 1597q0 64 31.5 98t91.5 34q86 0 86 -82q0 -63 -32 -97t-91 -34q-86 0 -86 81z" />
<glyph unicode="&#x2c6;" horiz-adv-x="684" d="M266 1139q0 47 43 69l215 119q36 19 56 19q23 0 47 -17l159 -129q31 -25 31 -63q0 -34 -23 -57t-57 -23q-30 0 -49 16l-125 103l-168 -105q-21 -14 -49 -14q-34 0 -57 23.5t-23 58.5z" />
<glyph unicode="&#x2dc;" horiz-adv-x="804" d="M281 1157q0 25 12 45q57 94 196 94q62 0 140.5 -34.5t111.5 -34.5q24 0 58 39q25 28 61 28q34 0 57 -23t23 -57q0 -25 -12 -45q-57 -94 -195 -94q-49 0 -97 17.5t-86 35t-63 17.5q-31 0 -61 -35q-30 -33 -66 -33q-34 0 -56.5 23t-22.5 57z" />
<glyph unicode="&#x2000;" horiz-adv-x="922" />
<glyph unicode="&#x2001;" horiz-adv-x="1845" />
<glyph unicode="&#x2002;" horiz-adv-x="922" />
<glyph unicode="&#x2003;" horiz-adv-x="1845" />
<glyph unicode="&#x2004;" horiz-adv-x="615" />
<glyph unicode="&#x2005;" horiz-adv-x="461" />
<glyph unicode="&#x2006;" horiz-adv-x="307" />
<glyph unicode="&#x2007;" horiz-adv-x="307" />
<glyph unicode="&#x2008;" horiz-adv-x="230" />
<glyph unicode="&#x2009;" horiz-adv-x="369" />
<glyph unicode="&#x200a;" horiz-adv-x="102" />
<glyph unicode="&#x2010;" horiz-adv-x="774" d="M178 504q0 43 33.5 74.5t79.5 31.5h409q33 0 55.5 -24t22.5 -58q0 -43 -33 -74.5t-77 -31.5h-410q-35 0 -57.5 24t-22.5 58z" />
<glyph unicode="&#x2011;" horiz-adv-x="774" d="M178 504q0 43 33.5 74.5t79.5 31.5h409q33 0 55.5 -24t22.5 -58q0 -43 -33 -74.5t-77 -31.5h-410q-35 0 -57.5 24t-22.5 58z" />
<glyph unicode="&#x2012;" horiz-adv-x="774" d="M178 504q0 43 33.5 74.5t79.5 31.5h409q33 0 55.5 -24t22.5 -58q0 -43 -33 -74.5t-77 -31.5h-410q-35 0 -57.5 24t-22.5 58z" />
<glyph unicode="&#x2013;" horiz-adv-x="1165" d="M272 565q0 42 35 74.5t78 32.5h633q33 0 55.5 -24t22.5 -58q0 -42 -34 -74.5t-77 -32.5h-633q-35 0 -57.5 24t-22.5 58z" />
<glyph unicode="&#x2014;" horiz-adv-x="1800" d="M272 565q0 42 35 74.5t78 32.5h1268q33 0 55.5 -24t22.5 -58q0 -42 -34 -74.5t-77 -32.5h-1268q-35 0 -57.5 24t-22.5 58z" />
<glyph unicode="&#x2018;" horiz-adv-x="411" d="M219 897q0 77 27.5 153t74 138t94.5 109.5t101 86.5q15 11 29 11q19 0 32 -13t13 -32q0 -18 -19 -37q-64 -64 -92 -107t-28 -96q0 -30 20.5 -81.5t20.5 -82.5q0 -73 -42 -114t-118 -41q-113 0 -113 106z" />
<glyph unicode="&#x2019;" horiz-adv-x="411" d="M207 836q0 18 18 36q64 64 92.5 107t28.5 96q0 31 -20.5 82t-20.5 82q0 73 42 114.5t118 41.5q113 0 113 -107q0 -77 -27.5 -153t-74 -138t-94.5 -109.5t-101 -86.5q-13 -10 -29 -10q-19 0 -32 13t-13 32z" />
<glyph unicode="&#x201a;" horiz-adv-x="448" d="M4 -305q0 18 19 37q64 64 92 106.5t28 95.5q0 30 -20.5 82t-20.5 82q0 73 42 114.5t118 41.5q113 0 113 -107q0 -77 -27.5 -153t-74 -138t-94.5 -109.5t-101 -86.5q-13 -10 -29 -10q-19 0 -32 13t-13 32z" />
<glyph unicode="&#x201c;" horiz-adv-x="745" d="M219 897q0 77 27.5 153t74 138t94.5 109.5t101 86.5q15 11 29 11q19 0 32 -13t13 -32q0 -18 -19 -37q-64 -64 -92 -107t-28 -96q0 -30 20.5 -81.5t20.5 -82.5q0 -73 -42 -114t-118 -41q-113 0 -113 106zM553 897q0 77 27.5 153t74 138t94.5 109.5t101 86.5q15 11 29 11 q19 0 32 -13t13 -32q0 -18 -19 -37q-64 -64 -92.5 -107t-28.5 -96q0 -30 20.5 -81.5t20.5 -82.5q0 -73 -41.5 -114t-117.5 -41q-113 0 -113 106z" />
<glyph unicode="&#x201d;" horiz-adv-x="745" d="M207 836q0 18 18 36q64 64 92.5 107t28.5 96q0 31 -20.5 82t-20.5 82q0 73 42 114.5t118 41.5q113 0 113 -107q0 -77 -27.5 -153t-74 -138t-94.5 -109.5t-101 -86.5q-13 -10 -29 -10q-19 0 -32 13t-13 32zM541 836q0 18 18 36q64 64 92.5 107t28.5 96q0 31 -20.5 82 t-20.5 82q0 73 42 114.5t118 41.5q112 0 112 -107q0 -77 -27.5 -153t-74 -138t-94.5 -109.5t-101 -86.5q-13 -10 -28 -10q-19 0 -32 13t-13 32z" />
<glyph unicode="&#x201e;" horiz-adv-x="782" d="M4 -305q0 18 19 37q64 64 92 106.5t28 95.5q0 30 -20.5 82t-20.5 82q0 73 42 114.5t118 41.5q113 0 113 -107q0 -77 -27.5 -153t-74 -138t-94.5 -109.5t-101 -86.5q-13 -10 -29 -10q-19 0 -32 13t-13 32zM338 -305q0 19 18 37q65 65 93 107t28 95q0 30 -20.5 82t-20.5 82 q0 73 42 114.5t118 41.5q113 0 113 -107q0 -77 -27.5 -153t-74 -138t-94.5 -109.5t-101 -86.5q-13 -10 -29 -10q-19 0 -32 13t-13 32z" />
<glyph unicode="&#x2022;" horiz-adv-x="856" d="M270 571q0 279 267 279q266 0 266 -279q0 -133 -68.5 -199.5t-197.5 -66.5q-130 0 -198.5 66.5t-68.5 199.5z" />
<glyph unicode="&#x202f;" horiz-adv-x="369" />
<glyph unicode="&#x2039;" horiz-adv-x="667" d="M166 424q0 32 33 65l381 371q23 23 57 23t57 -23t23 -57q0 -36 -31 -64l-346 -313l233 -317q13 -20 13 -43q0 -34 -23 -57t-57 -23q-44 0 -68 37l-254 352q-18 27 -18 49z" />
<glyph unicode="&#x203a;" horiz-adv-x="667" d="M100 66q0 35 31 63l346 313l-233 318q-13 20 -13 43q0 34 23 57t57 23q44 0 68 -37l254 -352q18 -27 18 -50q0 -32 -33 -65l-380 -371q-22 -22 -58 -22q-34 0 -57 23t-23 57z" />
<glyph unicode="&#x205f;" horiz-adv-x="461" />
<glyph unicode="&#x20ac;" horiz-adv-x="1310" d="M63 532q0 41 32.5 71t72.5 30h10q0 28 12 90h-10q-32 0 -53 22t-21 54q0 40 32 70t73 30h20q83 242 269.5 375t457.5 133q174 0 289 -67t166 -169q12 -27 12 -51q0 -46 -32 -78t-78 -32q-58 0 -86 41q-53 72 -125.5 107.5t-181.5 35.5q-164 0 -271.5 -78.5t-165.5 -216.5 h263q33 0 53 -21.5t20 -54.5q0 -41 -31 -70.5t-73 -29.5h-281q-1 -6 -12 -90h276q33 0 53.5 -21.5t20.5 -54.5q0 -41 -31 -70.5t-73 -29.5h-248q30 -271 321 -271q188 0 340 133q54 46 95 46q45 0 77.5 -31.5t32.5 -73.5q0 -47 -33 -84q-90 -97 -236 -151t-312 -54 q-238 0 -380 126t-155 360h-35q-32 0 -53 21.5t-21 53.5z" />
<glyph unicode="&#x2122;" horiz-adv-x="858" d="M279 1296q0 17 10.5 28t27.5 11h252q17 0 28 -11t11 -28q0 -16 -11 -27.5t-28 -11.5h-82v-258q0 -17 -13 -30t-30 -13q-18 0 -30.5 12.5t-12.5 30.5v258h-84q-17 0 -27.5 11.5t-10.5 27.5zM659 997v303q0 17 12 29t29 12q22 0 37 -22l94 -168l95 168q15 22 37 22 q17 0 29 -12t12 -29v-303q0 -17 -12 -29t-29 -12t-29 12t-12 29v164l-58 -106q-13 -21 -33 -21q-19 0 -32 21l-58 106v-164q0 -17 -12 -29t-29 -12t-29 12t-12 29z" />
<glyph unicode="&#x25fc;" horiz-adv-x="942" d="M0 0v942h942v-942h-942z" />
</font>
</defs>
</svg>
