<?xml version="1.0" standalone="no"?>
<!DOCTYPE svg PUBLIC "-//W3C//DTD SVG 1.1//EN" "http://www.w3.org/Graphics/SVG/1.1/DTD/svg11.dtd" >
<svg xmlns="http://www.w3.org/2000/svg">
<metadata></metadata>
<defs>
<font id="bariollight_italic" horiz-adv-x="999" >
<font-face units-per-em="2048" ascent="1612" descent="-436" />
<missing-glyph horiz-adv-x="512" />
<glyph unicode="&#x2e;&#x2e;&#x2e;" horiz-adv-x="1501" d="M100 20q0 28 16 44t42 16q39 0 39 -37q0 -28 -16 -43.5t-42 -15.5q-39 0 -39 36zM707 20q0 28 15.5 44t41.5 16q39 0 39 -37q0 -28 -16 -43.5t-42 -15.5q-38 0 -38 36zM1313 20q0 28 15.5 44t41.5 16q39 0 39 -37q0 -28 -15.5 -43.5t-41.5 -15.5q-39 0 -39 36z" />
<glyph unicode="&#xfb01;" horiz-adv-x="903" d="M-186 -389q0 12 9.5 21.5t22.5 9.5q145 0 228.5 84.5t109.5 228.5l164 922h-115q-22 0 -22 22q0 12 10 21.5t21 9.5h116l23 129q12 71 40.5 130.5t76 108.5t121.5 77t167 28q51 0 103.5 -13.5t83.5 -31.5q16 -10 16 -25q0 -11 -7 -18.5t-19 -7.5q-8 0 -27 8 q-82 35 -160 35q-145 0 -227 -78t-107 -213l-22 -129h475q12 0 19.5 -9.5t5.5 -21.5l-158 -885q-2 -12 -12 -21t-23 -9q-14 0 -22 8.5t-5 21.5l154 863h-444l-166 -928q-13 -73 -42 -135t-77 -114t-122 -82t-167 -30q-9 0 -15.5 7t-6.5 16z" />
<glyph unicode="&#xfb02;" horiz-adv-x="954" d="M-186 -389q0 12 9.5 21.5t22.5 9.5q145 0 228.5 84.5t109.5 228.5l164 922h-115q-22 0 -22 22q0 12 10 21.5t21 9.5h116l23 129q12 71 40.5 130.5t76 108.5t121.5 77t167 28q116 0 201 -57q14 -8 10 -23l-200 -1118q-6 -34 -6 -62q0 -55 25 -80.5t79 -25.5q9 0 16 -7 t7 -16q0 -12 -10 -21t-23 -9q-76 0 -116 39t-40 114q0 30 6 68l121 672h-446l-166 -928q-13 -73 -42 -135t-77 -114t-122 -82t-167 -30q-9 0 -15.5 7t-6.5 16zM420 930h446l70 383q-57 37 -160 37q-145 0 -227 -78t-107 -213z" />
<glyph unicode="&#xfb03;" horiz-adv-x="1435" d="M-186 -389q0 12 9.5 21.5t22.5 9.5q145 0 228.5 84.5t109.5 228.5l164 922h-115q-22 0 -22 22q0 12 10 21.5t21 9.5h116l23 129q12 71 40.5 130.5t76 108.5t121.5 77t167 28q10 0 16.5 -7t6.5 -16q0 -13 -10 -21.5t-23 -8.5q-145 0 -227 -78t-107 -213l-22 -129h471 l22 129q12 71 41 130.5t76.5 108.5t121.5 77t167 28q51 0 103 -13.5t83 -31.5q17 -10 17 -25q0 -11 -7.5 -18.5t-19.5 -7.5q-8 0 -27 8q-82 35 -159 35q-145 0 -227 -78t-107 -213l-23 -129h475q12 0 19.5 -9.5t5.5 -21.5l-158 -885q-2 -12 -11.5 -21t-22.5 -9 q-14 0 -22 8.5t-5 21.5l153 863h-444l-166 -928q-13 -73 -42 -135t-76.5 -114t-121.5 -82t-167 -30q-9 0 -16 7t-7 16q0 12 10 21.5t23 9.5q145 0 228.5 84.5t109.5 228.5l164 922h-471l-166 -928q-13 -73 -42 -135t-77 -114t-122 -82t-167 -30q-9 0 -15.5 7t-6.5 16z" />
<glyph unicode="&#xfb04;" horiz-adv-x="1486" d="M-186 -389q0 12 9.5 21.5t22.5 9.5q145 0 228.5 84.5t109.5 228.5l164 922h-115q-22 0 -22 22q0 12 10 21.5t21 9.5h116l23 129q12 71 40.5 130.5t76 108.5t121.5 77t167 28q10 0 16.5 -7t6.5 -16q0 -13 -10 -21.5t-23 -8.5q-145 0 -227 -78t-107 -213l-22 -129h471 l22 129q12 71 41 130.5t76.5 108.5t121.5 77t167 28q120 0 201 -57q14 -8 10 -23l-201 -1118q-6 -34 -6 -62q0 -55 25 -80.5t79 -25.5q9 0 16 -7t7 -16q0 -12 -10 -21t-23 -9q-155 0 -155 153q0 30 6 68l121 672h-447l-166 -928q-13 -73 -42 -135t-76.5 -114t-121.5 -82 t-167 -30q-9 0 -16 7t-7 16q0 12 10 21.5t23 9.5q145 0 228.5 84.5t109.5 228.5l164 922h-471l-166 -928q-13 -73 -42 -135t-77 -114t-122 -82t-167 -30q-9 0 -15.5 7t-6.5 16zM952 930h447l69 383q-57 37 -159 37q-145 0 -227 -78t-107 -213z" />
<glyph horiz-adv-x="2048" />
<glyph horiz-adv-x="2048" />
<glyph unicode="&#xd;" horiz-adv-x="2048" />
<glyph unicode=" "  horiz-adv-x="512" />
<glyph unicode="&#x09;" horiz-adv-x="512" />
<glyph unicode="&#xa0;" horiz-adv-x="512" />
<glyph unicode="!" horiz-adv-x="288" d="M100 20q0 28 16 44t42 16q39 0 39 -37q0 -28 -16 -43.5t-42 -15.5q-39 0 -39 36zM170 272l176 1088q6 35 43 35t31 -35l-209 -1088q-3 -18 -25 -18q-19 0 -16 18z" />
<glyph unicode="&#x22;" horiz-adv-x="604" d="M362 1010l48 350q5 35 41 35t28 -35l-78 -350q-3 -17 -22 -17q-20 0 -17 17zM557 1010l47 350q5 35 41 35q37 0 29 -35l-78 -350q-3 -17 -23 -17q-19 0 -16 17z" />
<glyph unicode="#" horiz-adv-x="1062" d="M176 479q0 12 10 21.5t21 9.5h164l108 324h-160q-9 0 -15.5 6.5t-6.5 15.5q0 12 10.5 21.5t22.5 9.5h168l145 426q6 22 29 22q9 0 15.5 -6.5t6.5 -15.5t-4 -21l-137 -405h340l145 426q6 22 29 22q9 0 16 -6.5t7 -15.5q0 -6 -5 -21l-137 -405h152q9 0 15.5 -7t6.5 -16 q0 -12 -10 -21t-22 -9h-160l-109 -324h156q10 0 16 -7t6 -16q0 -12 -9 -21t-21 -9h-164l-152 -451q-6 -22 -30 -22q-9 0 -16 6.5t-7 15.5q0 5 6 23l144 428h-340l-152 -451q-6 -22 -31 -22q-9 0 -15.5 6.5t-6.5 15.5q0 5 6 23l143 428h-155q-9 0 -16 6.5t-7 15.5zM426 510 h340l108 324h-339z" />
<glyph unicode="$" horiz-adv-x="1095" d="M102 238q0 12 9.5 21t21.5 9q21 0 27 -16q45 -101 139 -162t240 -61q219 0 346 96t127 272q0 59 -24 106t-64.5 78t-93 57t-110.5 47t-115.5 42.5t-110 49t-93 61t-64.5 84.5t-24 114q0 148 120 255t329 116l31 176q7 31 36 31q12 0 20 -9t5 -22l-31 -176q127 -4 219 -57 t144 -142q8 -12 8 -22q0 -12 -9 -21.5t-22 -9.5q-18 0 -26 16q-29 50 -71 88.5t-115.5 65.5t-164.5 27q-101 0 -180.5 -27t-127.5 -72.5t-72.5 -100t-24.5 -114.5q0 -68 38.5 -119.5t100 -83t135.5 -59t148 -57.5t135.5 -67.5t100 -99.5t38.5 -144q0 -199 -127.5 -312.5 t-378.5 -122.5l-30 -176q-6 -30 -37 -30q-13 0 -20.5 8.5t-4.5 21.5l31 174q-149 4 -248 71t-153 175q-7 14 -7 21z" />
<glyph unicode="%" horiz-adv-x="1527" d="M283 971q0 64 11.5 124.5t38.5 117.5t66 99.5t99.5 68.5t134.5 26q122 0 177.5 -61.5t55.5 -169.5q0 -81 -19.5 -155.5t-59 -139t-109.5 -103.5t-162 -39q-121 0 -177 62t-56 170zM336 979q0 -188 188 -188q73 0 129.5 30.5t90.5 83.5t51.5 119t17.5 143q0 189 -188 189 q-73 0 -129.5 -30.5t-90.5 -83.5t-51.5 -119.5t-17.5 -143.5zM406 8q0 10 6 19l921 1351q10 17 25 17q11 0 18.5 -7.5t7.5 -17.5q0 -9 -6 -18l-921 -1352q-10 -16 -25 -16q-12 0 -19 7t-7 17zM905 205q0 64 11.5 124.5t38.5 117.5t66 99.5t99.5 68.5t134.5 26 q122 0 178 -61.5t56 -169.5q0 -81 -19.5 -155.5t-59 -139t-109.5 -103.5t-162 -39q-122 0 -178 62t-56 170zM958 213q0 -188 189 -188q73 0 129.5 30.5t90.5 83.5t51.5 119t17.5 143q0 189 -189 189q-73 0 -129.5 -30.5t-90.5 -83.5t-51.5 -119.5t-17.5 -143.5z" />
<glyph unicode="&#x26;" horiz-adv-x="1390" d="M145 362q0 86 25.5 159.5t67.5 124.5t92.5 90.5t104.5 62.5t99 34.5t80 12.5q-31 7 -63 26t-64 49.5t-52.5 79t-20.5 105.5q0 73 30.5 132t80 95t109.5 55t122 19q104 0 185.5 -42t105.5 -114q2 -6 2 -12q0 -11 -7.5 -20t-19.5 -9q-16 0 -23 17q-63 129 -254 129 q-35 0 -71 -8.5t-72 -28t-64 -47.5t-45.5 -71t-17.5 -95q0 -63 28 -112t72.5 -76t93 -40.5t97.5 -13.5q10 0 16 -6t6 -14q0 -13 -9 -22t-23 -9q-81 0 -157.5 -15.5t-148 -51t-124.5 -86.5t-85 -128t-32 -170q0 -148 107.5 -241.5t314.5 -93.5q108 0 203 28t167.5 80.5 t115 133.5t42.5 180q0 104 -31 174q-36 0 -63 -1.5t-64 -8t-60.5 -18t-40.5 -34t-17 -53.5q0 -21 12 -41q6 -9 6 -18q0 -12 -8.5 -20.5t-20.5 -8.5q-15 0 -26 14q-21 25 -21 62q0 97 80 137.5t232 40.5h43t43 1.5t44.5 4t39 7t36 12t27 17.5t19.5 25t6 33q0 11 -2 20.5 t-4 14t-6 12t-5 8.5q-4 8 -4 17q0 12 8.5 20t20.5 8q18 0 29 -18q20 -33 20 -82q0 -37 -15 -65t-39.5 -44.5t-60.5 -26.5t-72 -13.5t-81 -3.5q30 -75 30 -172q0 -115 -48.5 -207.5t-131.5 -151t-189 -89t-224 -30.5q-225 0 -350.5 106.5t-125.5 284.5z" />
<glyph unicode="'" horiz-adv-x="407" d="M362 1010l48 350q5 35 41 35t28 -35l-78 -350q-3 -17 -22 -17q-20 0 -17 17z" />
<glyph unicode="(" horiz-adv-x="622" d="M221 176q0 169 49 430q14 84 26.5 145.5t35 149.5t47 153.5t63.5 141.5t84 131.5t107.5 104.5t136.5 77l10 2q12 0 20.5 -8t8.5 -20q0 -18 -18 -25q-53 -21 -100 -55t-84 -72.5t-69.5 -91t-56.5 -100t-46 -110t-35.5 -110.5t-28 -112t-22 -104t-17.5 -97 q-49 -261 -49 -424q0 -166 45 -269.5t153 -158.5q17 -8 17 -26q0 -12 -9 -19.5t-20 -7.5q-8 0 -16 4q-128 63 -180 182t-52 289z" />
<glyph unicode=")" horiz-adv-x="622" d="M27 -270q0 17 18 24q53 21 100 55t84 72.5t69.5 91t56.5 100t46 110t35.5 110.5t28 112t22 104t17.5 97q49 261 49 424q0 165 -45 269t-154 159q-16 8 -16 27q0 11 9 18.5t20 7.5q8 0 16 -4q128 -63 179.5 -181.5t51.5 -289.5q0 -169 -49 -430q-14 -85 -26 -145.5 t-35 -149t-47.5 -154t-63 -142t-83.5 -131.5t-107.5 -104t-136.5 -77l-11 -2q-12 0 -20 8.5t-8 20.5z" />
<glyph unicode="*" horiz-adv-x="731" d="M272 1202q0 10 7 20.5t18 10.5q6 0 18 -4l240 -70l-6 246q0 16 6.5 21.5t19.5 5.5q15 0 22 -5.5t7 -21.5l-6 -246l240 70q12 4 18 4q11 0 18 -10.5t7 -20.5q0 -18 -23 -24l-244 -56l154 -207q8 -12 8 -18q0 -10 -12.5 -19.5t-22.5 -9.5q-6 0 -16 13l-150 223l-147 -223 q-10 -13 -16 -13q-10 0 -22.5 9.5t-12.5 19.5q0 6 8 18l154 207l-244 56q-23 6 -23 24z" />
<glyph unicode="+" horiz-adv-x="929" d="M78 442q0 12 9.5 21.5t21.5 9.5h409l72 408q2 12 12 21t23 9t21 -8.5t5 -21.5l-71 -408h405q10 0 16.5 -6.5t6.5 -15.5q0 -12 -9.5 -21.5t-21.5 -9.5h-408l-71 -406q-2 -12 -13 -21t-24 -9t-20.5 8.5t-4.5 21.5l72 406h-408q-22 0 -22 22z" />
<glyph unicode="," horiz-adv-x="288" d="M43 -223q0 7 6 16q70 91 70 141q0 21 -9.5 47.5t-9.5 38.5q0 28 16 44t42 16q39 0 39 -37q0 -76 -34.5 -149t-80.5 -123q-11 -11 -21 -11q-18 0 -18 17z" />
<glyph unicode="-" horiz-adv-x="577" d="M164 512q0 12 9.5 21.5t21.5 9.5h374q9 0 16 -7t7 -16q0 -12 -9.5 -21.5t-21.5 -9.5h-375q-9 0 -15.5 7t-6.5 16z" />
<glyph unicode="." horiz-adv-x="288" d="M100 20q0 28 16 44t42 16q39 0 39 -37q0 -28 -16 -43.5t-42 -15.5q-39 0 -39 36z" />
<glyph unicode="/" horiz-adv-x="833" d="M72 -170q0 6 4 14l864 1674q9 20 29 20q12 0 21 -9.5t9 -21.5q0 -6 -4 -14l-864 -1673q-9 -21 -29 -21q-12 0 -21 9.5t-9 21.5z" />
<glyph unicode="0" horiz-adv-x="1212" d="M203 399q0 167 21 313t70 275t122 221t182.5 145.5t247.5 53.5q201 0 304 -104t103 -324q0 -167 -21 -313t-70 -275t-122 -221t-182.5 -145.5t-247.5 -53.5q-201 0 -304 104t-103 324zM268 410q0 -198 82.5 -290.5t259.5 -92.5q126 0 225.5 51.5t165 139t108.5 210 t61 256t18 285.5q0 198 -82.5 291.5t-259.5 93.5q-126 0 -225.5 -52t-165 -139.5t-108.5 -210t-61 -256.5t-18 -286z" />
<glyph unicode="1" horiz-adv-x="718" d="M305 1114q0 18 17 29l393 243q15 9 24 9q12 0 20 -9t5 -22l-238 -1350q-2 -12 -13 -21t-24 -9t-21 9t-5 21l229 1293l-340 -213q-11 -7 -20 -7q-10 0 -18.5 8.5t-8.5 18.5z" />
<glyph unicode="2" horiz-adv-x="1083" d="M106 25q0 79 34 147t91.5 119.5t132 98t156.5 89t164 85.5t156.5 94.5t132 109.5t91.5 136t34 169q0 126 -76.5 201.5t-226.5 75.5q-271 0 -392 -230q-10 -16 -26 -16q-12 0 -20.5 8.5t-8.5 20.5q0 8 6 20q135 254 449 254q170 0 266 -87.5t96 -234.5q0 -98 -34 -183.5 t-91 -149t-131.5 -119.5t-157 -101t-164.5 -87.5t-156.5 -84.5t-131.5 -86.5t-91 -99.5t-34 -117h809q23 0 23 -24q0 -13 -10 -23t-23 -10h-842q-11 0 -18 7t-7 18z" />
<glyph unicode="3" horiz-adv-x="1095" d="M121 215q0 12 8.5 20.5t20.5 8.5q20 0 28 -23q32 -98 116.5 -144t229.5 -46q226 0 346.5 119.5t120.5 328.5q0 277 -309 277h-150q-10 0 -17 7t-7 17q0 13 14 27l537 514h-635q-10 0 -17.5 7.5t-7.5 17.5q0 13 10.5 22.5t24.5 9.5h701q11 0 17.5 -7t6.5 -17 q0 -13 -10 -23l-543 -518h99q96 0 167 -26t110.5 -73t58 -104t18.5 -127q0 -235 -143 -373.5t-402 -138.5q-319 0 -391 230q-2 6 -2 14z" />
<glyph unicode="4" horiz-adv-x="1083" d="M111 360q0 10 10 23l872 993q16 19 35 19q14 0 23 -10t6 -23l-170 -969h164q11 0 17.5 -6.5t6.5 -17.5q0 -13 -10.5 -23t-24.5 -10h-163l-58 -322q-2 -12 -13 -21t-24 -9q-30 0 -26 30l57 322h-678q-11 0 -17.5 7t-6.5 17zM205 393h618l154 879z" />
<glyph unicode="5" horiz-adv-x="1128" d="M131 254q0 15 8.5 24t20.5 9q21 0 28 -23q35 -121 126.5 -178t246.5 -57q218 0 346.5 121.5t128.5 367.5q0 159 -88.5 236t-245.5 77q-129 0 -226 -38.5t-183 -124.5q-15 -15 -29 -15q-10 0 -17 7t-7 18q0 7 6 22l243 656q7 22 31 22h660q22 0 22 -24q0 -14 -10 -23.5 t-23 -9.5h-634l-213 -567q139 135 391 135q182 0 285.5 -92.5t103.5 -272.5q0 -270 -151 -411.5t-400 -141.5q-317 0 -414 258q-6 15 -6 25z" />
<glyph unicode="6" horiz-adv-x="1159" d="M199 387q0 89 8.5 180t29.5 193t53.5 193t85 175.5t119 145t160.5 97t205 36.5q109 0 187 -32t114 -75q8 -8 8 -20t-8 -20.5t-20 -8.5t-21 9q-101 90 -270 90q-223 0 -362.5 -166.5t-192.5 -464.5l-21 -119q59 120 172.5 193t286.5 73q183 0 290 -87t107 -251 q0 -121 -32.5 -221t-98 -176t-172.5 -118t-247 -42q-190 0 -285.5 110t-95.5 306zM262 383q0 -172 81.5 -262t242.5 -90q225 0 352 130.5t127 358.5q0 149 -91 219t-251 70q-162 0 -270 -77.5t-183 -231.5q-8 -55 -8 -117z" />
<glyph unicode="7" horiz-adv-x="989" d="M264 14q20 156 73 292t123.5 233t152 182.5t161 157.5t147 139t115.5 144.5t60 158.5h-772q-10 0 -17.5 7.5t-7.5 17.5q0 12 10 22t25 10h811q10 0 16 -7.5t4 -18.5q-12 -79 -45.5 -151t-80 -130t-103 -114.5t-118.5 -112.5t-124 -116.5t-120.5 -133.5t-107.5 -156 t-86 -192t-54 -234q-1 -13 -11.5 -20.5t-23.5 -7.5q-31 0 -27 30z" />
<glyph unicode="8" horiz-adv-x="1126" d="M154 299q0 186 99.5 303.5t281.5 151.5q-89 21 -140 87t-51 167q0 194 128 296.5t339 102.5q163 0 256.5 -71t93.5 -206q0 -150 -83.5 -248.5t-219.5 -127.5q115 -27 180.5 -108t65.5 -206q0 -228 -145 -348.5t-400 -120.5q-183 0 -294 85t-111 243zM219 307 q0 -141 95 -209.5t255 -68.5q99 0 182.5 23.5t148.5 71t101.5 127t36.5 183.5q0 144 -92.5 215.5t-255.5 71.5q-213 0 -342 -105.5t-129 -308.5zM403 1016q0 -119 78.5 -179.5t218.5 -60.5q180 0 290 90t110 256q0 116 -77 173t-220 57q-186 0 -293 -85t-107 -251z" />
<glyph unicode="9" horiz-adv-x="1159" d="M231 98q0 12 8.5 20.5t20.5 8.5q13 0 21 -8q101 -90 270 -90q223 0 362.5 166.5t192.5 463.5l20 119q-60 -120 -172.5 -193t-285.5 -73q-183 0 -290.5 87t-107.5 251q0 121 33 221t98.5 176t172.5 118t247 42q190 0 285.5 -110t95.5 -306q0 -89 -8.5 -180t-29.5 -193 t-53.5 -193t-85 -175.5t-119 -145t-160.5 -97t-205 -36.5q-109 0 -187 32t-114 75q-9 9 -9 20zM336 858q0 -149 91 -219t251 -70q161 0 269 78t183 232q9 61 9 116q0 169 -82 261t-242 92q-238 0 -358.5 -128.5t-120.5 -361.5z" />
<glyph unicode=":" horiz-adv-x="288" d="M100 20q0 28 16 44t42 16q39 0 39 -37q0 -28 -16 -43.5t-42 -15.5q-39 0 -39 36zM252 874q0 28 16 44t41 16q39 0 39 -37q0 -28 -15.5 -43.5t-41.5 -15.5q-39 0 -39 36z" />
<glyph unicode=";" horiz-adv-x="288" d="M43 -223q0 7 6 16q70 91 70 141q0 21 -9.5 47.5t-9.5 38.5q0 28 16 44t42 16q39 0 39 -37q0 -76 -34.5 -149t-80.5 -123q-11 -11 -21 -11q-18 0 -18 17zM252 874q0 28 16 44t41 16q39 0 39 -37q0 -28 -15.5 -43.5t-41.5 -15.5q-39 0 -39 36z" />
<glyph unicode="&#x3c;" horiz-adv-x="704" d="M100 477q0 18 19 31l696 479q9 6 19 6q12 0 20 -8t8 -20q0 -15 -12 -25l-678 -463l506 -459q8 -8 8 -20t-8.5 -20.5t-20.5 -8.5t-20 8l-526 478q-11 11 -11 22z" />
<glyph unicode="=" horiz-adv-x="929" d="M51 287q0 12 10 21t21 9h876q9 0 16 -6.5t7 -15.5q0 -12 -10 -21.5t-21 -9.5h-876q-9 0 -16 7t-7 16zM106 600q0 12 10 21.5t21 9.5h877q9 0 15.5 -7t6.5 -16q0 -12 -9.5 -21t-20.5 -9h-877q-9 0 -16 6.5t-7 15.5z" />
<glyph unicode="&#x3e;" horiz-adv-x="704" d="M12 -2q0 15 13 25l677 462l-505 459q-9 9 -9 21t8.5 20t20.5 8q13 0 21 -8l526 -477q10 -10 10 -23q0 -18 -18 -30l-697 -480q-9 -6 -18 -6q-12 0 -20.5 8.5t-8.5 20.5z" />
<glyph unicode="?" horiz-adv-x="944" d="M268 1042q9 59 27.5 109t52.5 98.5t81.5 82.5t118.5 54.5t159 20.5q167 0 255.5 -79t88.5 -214q0 -104 -32 -183.5t-82.5 -128t-112 -86.5t-123 -68.5t-112 -62.5t-82.5 -80.5t-32 -111.5q0 -45 23 -92q6 -12 6 -18q0 -14 -9.5 -22.5t-21.5 -8.5q-17 0 -27 14 q-32 45 -32 127q0 57 19.5 103.5t53 78.5t76.5 59t91 51t95.5 50t90.5 59.5t76.5 75t53 102.5t19.5 136q0 116 -75 181t-212 65q-318 0 -372 -312q-1 -12 -12 -21t-23 -9q-14 0 -21.5 9.5t-5.5 20.5zM373 20q0 28 15.5 44t41.5 16q39 0 39 -37q0 -28 -15.5 -43.5 t-41.5 -15.5q-39 0 -39 36z" />
<glyph unicode="@" horiz-adv-x="1654" d="M141 152q0 441 235.5 692.5t647.5 251.5q288 0 459.5 -149.5t171.5 -416.5q0 -71 -11 -141.5t-39.5 -147t-72 -134t-115.5 -95t-162 -37.5q-46 0 -83.5 9t-68 38t-30.5 76q0 30 8 76q-34 -81 -108 -140t-180 -59q-127 0 -190.5 72t-63.5 195q0 96 27 184t77 157.5 t129 110.5t176 41q120 0 219 -73l7 34q2 12 9.5 20.5t20.5 8.5q12 0 19.5 -7.5t7.5 -19.5l-4 -24l-94 -506q-7 -39 -7 -62q0 -48 36.5 -64.5t101.5 -16.5q140 0 233.5 130t93.5 367q0 252 -151 386t-424 134q-373 0 -593 -235t-220 -647q0 -265 138.5 -380.5t430.5 -115.5 q290 0 508 139q15 9 23 9q10 0 17 -8t7 -17q0 -16 -16 -27q-230 -149 -549 -149q-311 0 -466 128t-155 413zM600 242q0 -105 46.5 -159t152.5 -54q120 0 206 101.5t113 256.5l39 217q-36 34 -92 56t-119 22q-154 0 -250 -119t-96 -321z" />
<glyph unicode="A" horiz-adv-x="1261" d="M70 12q0 10 8 23l762 1337q12 23 34 23q12 0 20.5 -7t10.5 -16l293 -1339q2 -6 2 -12q0 -12 -8 -22q-10 -15 -31 -15q-25 0 -31 30l-88 424h-665l-246 -434q-11 -20 -33 -20q-13 0 -20.5 8.5t-7.5 19.5zM410 498h622l-170 794z" />
<glyph unicode="B" horiz-adv-x="1138" d="M190 33l232 1313q3 14 13.5 23t23.5 9h360q178 0 265 -72t87 -204q0 -83 -26 -149t-71 -108t-90 -67t-97 -41q103 -15 168 -87t65 -201q0 -202 -125.5 -325.5t-347.5 -123.5h-430q-14 0 -22 10q-6 7 -6 16q0 3 1 7zM260 57h397q186 0 292 106.5t106 282.5 q0 127 -70.5 189.5t-218.5 62.5h-393zM383 756h328q186 0 289.5 92.5t103.5 245.5q0 227 -295 227h-328z" />
<glyph unicode="C" horiz-adv-x="1273" d="M193 483q0 148 28.5 282.5t89.5 252.5t151 204t220.5 135.5t288.5 49.5q140 0 246.5 -58.5t168.5 -154.5q7 -10 7 -20q0 -12 -9.5 -21.5t-21.5 -9.5q-17 0 -27 16q-121 191 -374 191q-146 0 -265 -47.5t-199 -129t-135 -192.5t-79.5 -235t-24.5 -261q0 -456 471 -456 q118 0 231.5 48.5t206.5 141.5q12 12 25 12q12 0 21.5 -9t9.5 -21t-11 -23q-96 -96 -222.5 -151.5t-264.5 -55.5q-256 0 -394 129t-138 383z" />
<glyph unicode="D" horiz-adv-x="1243" d="M188 33l232 1313q3 14 14.5 23t24.5 9h305q258 0 393 -113t135 -362q0 -145 -24.5 -273.5t-82 -245.5t-144.5 -201t-220.5 -133.5t-300.5 -49.5h-305q-14 0 -22 10q-6 7 -6 16q0 3 1 7zM258 57h272q330 0 513.5 217t183.5 619q0 229 -120.5 328.5t-352.5 99.5h-273z" />
<glyph unicode="E" horiz-adv-x="1048" d="M190 33l232 1313q3 14 13.5 23t23.5 9h694q25 0 25 -24q0 -13 -10.5 -23t-24.5 -10h-662l-104 -598h516q11 0 18 -7.5t7 -17.5q0 -13 -10.5 -22.5t-24.5 -9.5h-516l-107 -609h686q23 0 23 -24q0 -13 -9.5 -23t-23.5 -10h-721q-13 0 -21 10q-5 7 -5 15q0 4 1 8z" />
<glyph unicode="F" horiz-adv-x="1048" d="M190 33l232 1313q3 14 13.5 23t23.5 9h694q25 0 25 -24q0 -13 -10.5 -23t-24.5 -10h-662l-108 -619h516q11 0 17.5 -7t6.5 -17q0 -13 -10 -23t-24 -10h-514l-109 -612q-2 -14 -13 -23.5t-26 -9.5q-14 0 -22 10q-6 7 -6 16q0 3 1 7z" />
<glyph unicode="G" horiz-adv-x="1376" d="M193 483q0 148 28.5 282.5t89.5 252.5t151 204t220.5 135.5t288.5 49.5q140 0 246.5 -58.5t168.5 -154.5q7 -10 7 -20q0 -12 -9.5 -21.5t-21.5 -9.5q-17 0 -27 16q-121 191 -374 191q-146 0 -265 -47.5t-199 -129t-135 -192.5t-79.5 -235t-24.5 -261q0 -456 471 -456 q268 0 483 202l64 357h-402q-10 0 -17 7t-7 17q0 13 10.5 23t24.5 10h434q10 0 17 -8t5 -19l-65 -378q-3 -21 -23 -41q-101 -101 -236 -164.5t-292 -63.5q-256 0 -394 129t-138 383z" />
<glyph unicode="H" horiz-adv-x="1318" d="M188 16l236 1346q3 14 13.5 23.5t25.5 9.5q14 0 21.5 -10t4.5 -23l-110 -625h819l111 625q3 14 13.5 23.5t25.5 9.5q14 0 22 -10q5 -7 5 -16q0 -3 -1 -7l-235 -1346q-3 -14 -13.5 -23t-25.5 -9q-14 0 -22 9.5t-5 22.5l117 662h-819l-117 -662q-3 -14 -13.5 -23t-25.5 -9 q-14 0 -22 10q-6 7 -6 15q0 3 1 7z" />
<glyph unicode="I" horiz-adv-x="434" d="M188 16l236 1346q3 14 14.5 23.5t24.5 9.5t21 -10q5 -7 6 -16q0 -3 -1 -7l-235 -1346q-6 -32 -39 -32q-14 0 -22 10q-6 7 -6 15q0 3 1 7z" />
<glyph unicode="J" horiz-adv-x="821" d="M41 41q0 14 9 23.5t22 9.5q6 0 22 -8q73 -37 180 -37q157 0 249.5 100t121.5 270l170 963q7 33 37 33q14 0 23 -10q7 -7 7 -17q0 -3 -1 -6l-170 -963q-17 -96 -48.5 -170t-83 -134t-131.5 -92t-184 -32q-130 0 -205 43q-18 9 -18 27z" />
<glyph unicode="K" horiz-adv-x="1122" d="M188 16l236 1346q7 33 39 33q14 0 21.5 -10t4.5 -23l-137 -784l846 804q13 13 29 13q12 0 21 -9.5t9 -21.5q0 -17 -16 -33l-569 -532l403 -766q4 -8 4 -17q0 -14 -9.5 -23t-22.5 -9q-20 0 -29 18l-400 746l-282 -265l-82 -467q-6 -32 -39 -32q-14 0 -22 10q-6 7 -6 15 q0 3 1 7z" />
<glyph unicode="L" horiz-adv-x="976" d="M188 29l236 1333q3 14 13.5 23.5t25.5 9.5q14 0 21.5 -10t4.5 -23l-229 -1305h637q11 0 18 -7t7 -17q0 -13 -10.5 -23t-24.5 -10h-674q-12 0 -19.5 8.5t-5.5 20.5z" />
<glyph unicode="M" horiz-adv-x="1568" d="M166 14l240 1350q2 13 10.5 22t21.5 9q21 0 29 -19l362 -1054l738 1056q13 17 28 17q13 0 23 -9.5t8 -21.5l-240 -1350q-6 -30 -34 -30q-13 0 -21.5 8.5t-5.5 21.5l217 1229l-694 -993q-15 -21 -33 -21q-21 0 -27 21l-344 993l-217 -1229q-2 -12 -11.5 -21t-22.5 -9 t-21 8q-6 7 -6 17v5z" />
<glyph unicode="N" horiz-adv-x="1271" d="M166 14l240 1350q2 12 11.5 21.5t22.5 9.5q20 0 27 -17l600 -1265l221 1251q2 12 12 21.5t23 9.5q12 0 20.5 -9.5t6.5 -21.5l-238 -1348q-3 -14 -14.5 -23t-24.5 -9q-20 0 -29 18l-595 1270l-222 -1258q-2 -12 -11.5 -21t-22.5 -9t-21 8q-6 6 -7 16q0 3 1 6z" />
<glyph unicode="O" horiz-adv-x="1441" d="M193 483q0 148 28 282.5t89.5 252.5t150 204t217.5 135.5t285 49.5q255 0 392.5 -129t137.5 -383q0 -148 -28 -282.5t-89.5 -252.5t-150 -204t-217.5 -135.5t-285 -49.5q-255 0 -392.5 129t-137.5 383zM258 485q0 -456 469 -456q145 0 263.5 47.5t198.5 128.5t134.5 192 t79 235t24.5 261q0 457 -469 457q-145 0 -263.5 -47.5t-198.5 -129t-134.5 -192.5t-79 -235t-24.5 -261z" />
<glyph unicode="P" horiz-adv-x="1110" d="M188 16l234 1330q3 14 14.5 23t24.5 9h432q144 0 228.5 -76.5t84.5 -232.5q0 -197 -130.5 -329t-317.5 -132h-400l-104 -592q-3 -14 -14.5 -23t-24.5 -9q-14 0 -22 10q-6 7 -6 15q0 3 1 7zM367 666h376q176 0 286 112t110 283q0 132 -72.5 196t-206.5 64h-377z" />
<glyph unicode="Q" horiz-adv-x="1439" d="M193 483q0 148 28 282.5t89.5 252.5t150 204t217.5 135.5t285 49.5q255 0 392.5 -129t137.5 -383q0 -158 -34.5 -301.5t-101.5 -264t-175.5 -207t-247.5 -122.5q72 -14 117 -49.5t96 -104.5q8 -11 8 -24q0 -12 -10 -21.5t-23 -9.5q-15 0 -24 12q-57 85 -129.5 126.5 t-184.5 41.5h-61q-255 0 -392.5 129t-137.5 383zM258 485q0 -456 469 -456q145 0 263.5 47.5t198.5 128.5t134.5 192t79 235t24.5 261q0 457 -469 457q-145 0 -263.5 -47.5t-198.5 -129t-134.5 -192.5t-79 -235t-24.5 -261z" />
<glyph unicode="R" horiz-adv-x="1124" d="M188 16l234 1330q3 14 14.5 23t24.5 9h430q142 0 228.5 -90.5t86.5 -226.5q0 -78 -32.5 -155t-90.5 -139.5t-145.5 -101t-189.5 -38.5h-33l329 -594q7 -11 7 -19q0 -13 -9.5 -21.5t-21.5 -8.5q-19 0 -27 16l-344 627h-287l-108 -611q-1 -13 -13 -22.5t-26 -9.5t-22 10 q-6 7 -6 15q0 3 1 7zM371 686h387q104 0 193 53t138.5 138t49.5 180q0 116 -70 190t-188 74h-398z" />
<glyph unicode="S" horiz-adv-x="1095" d="M102 238q0 12 9.5 21t21.5 9q21 0 27 -16q45 -101 139 -162t240 -61q219 0 346 96t127 272q0 59 -24 106t-64.5 78t-93 57t-110.5 47t-115.5 42.5t-110 49t-93 61t-64.5 84.5t-24 114q0 156 129.5 263.5t354.5 107.5q140 0 233 -50.5t156 -148.5q8 -12 8 -22 q0 -12 -9 -21.5t-22 -9.5q-18 0 -26 16q-29 50 -71 88.5t-115.5 65.5t-164.5 27q-101 0 -180.5 -27t-127.5 -72.5t-72.5 -100t-24.5 -114.5q0 -68 38.5 -119.5t100 -83t135.5 -59t148 -57.5t135.5 -67.5t100 -99.5t38.5 -144q0 -207 -139 -322t-410 -115q-156 0 -259.5 67.5 t-159.5 178.5q-7 14 -7 21z" />
<glyph unicode="T" horiz-adv-x="1089" d="M297 1346q0 13 10.5 22.5t24.5 9.5h911q11 0 18 -7t7 -17q0 -13 -10.5 -23t-24.5 -10h-424l-229 -1305q-3 -14 -13.5 -23t-23.5 -9q-14 0 -23 9.5t-6 22.5l229 1305h-421q-10 0 -17.5 7.5t-7.5 17.5z" />
<glyph unicode="U" horiz-adv-x="1284" d="M246 293q0 51 10 113l168 956q3 14 13.5 23.5t25.5 9.5q14 0 21.5 -10t4.5 -23l-167 -956q-11 -64 -11 -103q0 -60 16.5 -107t54 -86t107 -60t168.5 -21q96 0 172.5 21.5t126.5 56t86 85t54.5 101.5t29.5 113l168 956q3 14 14.5 23.5t24.5 9.5q14 0 22 -10q6 -7 6 -16 q0 -3 -1 -7l-168 -956q-13 -74 -34.5 -133t-63 -117.5t-99 -97.5t-146.5 -63t-202 -24q-111 0 -191 25.5t-124.5 71t-65 101t-20.5 124.5z" />
<glyph unicode="V" horiz-adv-x="1163" d="M279 1358q0 15 9.5 26t24.5 11q12 0 20.5 -7t10.5 -16l256 -1268l698 1268q14 23 35 23q13 0 23 -9.5t10 -21.5q0 -4 -2 -10t-4 -10l-2 -3l-742 -1337q-10 -20 -36 -20t-29 20l-268 1331q-4 17 -4 23z" />
<glyph unicode="W" horiz-adv-x="1687" d="M279 1350v7q-1 15 7 25q10 12 29 13q27 0 31 -25l135 -1259l574 1261q10 23 35 23t28 -23l129 -1255l576 1255q11 23 35 23q12 0 21 -8.5t9 -20.5q0 -11 -6 -23l-618 -1335q-10 -24 -39 -24q-10 0 -18 6t-9 16l-133 1245l-569 -1245q-9 -22 -39 -22q-10 0 -18 6t-9 16z " />
<glyph unicode="X" horiz-adv-x="995" d="M10 16q0 12 13 29l561 670l-301 628q-4 8 -4 17q0 14 10.5 24.5t23.5 10.5q24 0 33 -23l285 -598l504 604q14 17 28 17q13 0 24 -10.5t11 -24.5q0 -12 -10 -25l-529 -626l326 -674q4 -8 4 -17q0 -13 -10.5 -23.5t-24.5 -10.5q-21 0 -30 18l-312 649l-536 -651 q-13 -16 -33 -16q-13 0 -23 10t-10 22z" />
<glyph unicode="Y" horiz-adv-x="1030" d="M279 1360q0 14 10.5 24.5t23.5 10.5q24 0 33 -23l291 -659l532 665q14 17 31 17q13 0 23 -10.5t10 -22.5q0 -14 -10 -27l-559 -684l-113 -635q-1 -13 -13 -22.5t-26 -9.5t-22 9.5t-5 22.5l111 635l-313 690q-4 8 -4 19z" />
<glyph unicode="Z" horiz-adv-x="1017" d="M27 25q0 12 12 26l1067 1270h-776q-25 0 -25 25q0 13 9.5 22.5t23.5 9.5h831q11 0 18 -7t7 -17q0 -11 -10 -23l-1069 -1274h856q22 0 22 -24q0 -14 -9.5 -23.5t-22.5 -9.5h-912q-9 0 -15.5 7.5t-6.5 17.5z" />
<glyph unicode="[" horiz-adv-x="477" d="M100 -272l312 1757q1 10 10 18t20 8h189q9 0 15.5 -6.5t6.5 -15.5q0 -12 -10 -21.5t-22 -9.5h-154l-299 -1704h154q9 0 14.5 -6.5t5.5 -15.5q0 -12 -9.5 -21.5t-21.5 -9.5h-188q-10 0 -17.5 8t-5.5 19z" />
<glyph unicode="\" horiz-adv-x="835" d="M367 1501q0 15 12 26t27 11q23 0 26 -22l268 -1674l2 -6q0 -14 -10.5 -25.5t-25.5 -11.5q-11 0 -19.5 6t-9.5 15l-268 1675z" />
<glyph unicode="]" horiz-adv-x="479" d="M37 -276q0 12 9.5 21t21.5 9h153l301 1704h-153q-9 0 -16 7t-7 16q0 12 10.5 21t22.5 9h188q11 0 17.5 -8t5.5 -18l-311 -1757q-1 -10 -10.5 -18.5t-20.5 -8.5h-189q-9 0 -15.5 7t-6.5 16z" />
<glyph unicode="^" horiz-adv-x="958" d="M225 780q0 12 8 23l463 594q14 18 31 18q18 0 25 -18l249 -592q5 -10 5 -21q0 -13 -8 -20.5t-19 -7.5q-21 0 -29 18l-233 561l-436 -563q-11 -16 -29 -16q-11 0 -19 7t-8 17z" />
<glyph unicode="_" horiz-adv-x="831" d="M-68 -145q0 12 9.5 21t21.5 9h864q9 0 16 -6.5t7 -15.5q0 -12 -9.5 -21.5t-21.5 -9.5h-864q-9 0 -16 7t-7 16z" />
<glyph unicode="`" horiz-adv-x="757" d="M403 1346q20 23 46 -3l245 -241q18 -18 2 -33q-14 -14 -32 2l-254 229q-27 23 -7 46z" />
<glyph unicode="a" horiz-adv-x="962" d="M125 319q0 125 34 238.5t98.5 203.5t166.5 143.5t227 53.5q81 0 155 -28t122 -82l10 67q7 31 35 31q12 0 19 -7.5t7 -18.5q0 -5 -2 -15l-161 -889q-6 -30 -35 -30q-23 0 -23 24q0 7 2 17l41 200q-20 -48 -52 -90.5t-77 -80t-107.5 -59.5t-133.5 -22q-166 0 -246 92 t-80 252zM188 319q0 -136 66 -213t205 -77q155 0 266 137.5t145 341.5l48 274q-90 123 -267 123q-201 0 -332 -162.5t-131 -423.5z" />
<glyph unicode="b" horiz-adv-x="1040" d="M201 274q0 50 8 97l186 1056q2 13 11.5 22t23.5 9q12 0 20.5 -9.5t6.5 -21.5l-119 -663q5 8 15 21t45 46.5t75 59t104 46.5t132 21q166 0 256 -87t90 -257q0 -95 -16.5 -183.5t-55.5 -173t-97.5 -146.5t-148.5 -100t-202 -38q-155 0 -244.5 76.5t-89.5 224.5zM262 283 q0 -129 75.5 -192.5t207.5 -63.5q114 0 201.5 48.5t139 132t77.5 185.5t26 219q0 293 -291 293q-69 0 -133 -24.5t-106 -59.5t-74.5 -70.5t-47.5 -60.5l-15 -24l-52 -295q-8 -52 -8 -88z" />
<glyph unicode="c" horiz-adv-x="901" d="M147 317q0 297 140.5 469t382.5 172q57 0 105 -12.5t76.5 -28t50.5 -37.5t30 -34.5t14 -24.5q4 -8 4 -18q0 -12 -8.5 -19.5t-19.5 -7.5q-16 0 -23 12q-13 21 -26 36.5t-40.5 36.5t-71.5 32.5t-102 11.5q-141 0 -243 -77.5t-152.5 -208.5t-50.5 -300q0 -151 73 -221.5 t218 -70.5q134 0 284 102q9 6 19 6q11 0 19 -7t8 -19q0 -16 -17 -27q-155 -109 -321 -109q-169 0 -259 86t-90 258z" />
<glyph unicode="d" horiz-adv-x="1028" d="M147 317q0 95 17 183.5t56 173t97.5 146.5t149 100t201.5 38q51 0 95.5 -10.5t74 -28t53.5 -38t38 -41t23 -38t12 -28.5l3 -10l118 663q2 12 12 21.5t23 9.5t21 -9.5t6 -21.5l-186 -1056q-34 -193 -161 -295.5t-306 -102.5q-167 0 -257 86t-90 258zM213 319 q0 -292 291 -292q99 0 179 35t138 114t78 195l51 295q-2 10 -6 26t-24 57t-48.5 72.5t-85 57.5t-127.5 26q-92 0 -167.5 -32t-126.5 -87t-86 -130.5t-50.5 -159.5t-15.5 -177z" />
<glyph unicode="e" horiz-adv-x="942" d="M150 313q0 91 16 178t55 173t97.5 150t150.5 104t207 40q133 0 206.5 -62t73.5 -151q0 -60 -22.5 -107.5t-58.5 -79.5t-94.5 -55t-116 -36t-138 -20t-146.5 -9t-155 -2q-12 -44 -12 -121q0 -50 7 -90t26 -78.5t50.5 -63.5t83.5 -40.5t122 -15.5q165 0 295 102q9 6 16 6 q11 0 19 -8t8 -18q0 -13 -17 -27q-134 -109 -329 -109q-344 0 -344 340zM231 489q80 0 136.5 1.5t131.5 7t127 15t107.5 28t89 44t55 63.5t21.5 87q0 75 -63 122.5t-170 47.5q-166 0 -282 -103t-153 -313z" />
<glyph unicode="f" horiz-adv-x="555" d="M-186 -389q0 12 9.5 21.5t22.5 9.5q145 0 228.5 84.5t109.5 228.5l164 922h-115q-22 0 -22 22q0 12 10 21.5t21 9.5h116l23 129q12 71 40.5 130.5t76 108.5t121.5 77t167 28q10 0 16.5 -7t6.5 -16q0 -13 -10 -21.5t-23 -8.5q-145 0 -227 -78t-107 -213l-22 -129h242 q10 0 16 -7t6 -16q0 -12 -10 -21t-21 -9h-243l-166 -928q-13 -73 -42 -135t-77 -114t-122 -82t-167 -30q-9 0 -15.5 7t-6.5 16z" />
<glyph unicode="g" horiz-adv-x="991" d="M133 -231q0 52 24 96.5t51.5 72t95 61t105 48t131.5 47.5q3 1 5 2q-40 -4 -74 -4q-136 0 -230 86.5t-94 229.5q0 116 30 214t89.5 174t158.5 119t228 43q151 0 237.5 -70t86.5 -204q0 -71 -12 -141l-101 -568q-24 -133 -94 -221.5t-168 -127t-223 -38.5 q-117 0 -181.5 53.5t-64.5 127.5zM199 -219q0 -68 53 -103.5t137 -35.5q163 0 272 82.5t142 250.5l57 308q-32 -54 -86 -99.5t-114 -75.5t-126 -58t-125 -54t-106.5 -55t-75.5 -69.5t-28 -90.5zM213 410q0 -132 77.5 -199.5t203.5 -67.5q149 0 261 87.5t134 215.5l14 86 q12 66 12 146q0 63 -22 109t-61 71t-84.5 36t-100.5 11q-205 0 -319.5 -133.5t-114.5 -361.5z" />
<glyph unicode="h" horiz-adv-x="1015" d="M145 14l250 1413q2 12 12 21.5t25 9.5q12 0 19.5 -9.5t5.5 -21.5l-117 -665q33 73 128.5 134.5t227.5 61.5q159 0 234.5 -71.5t75.5 -188.5q0 -50 -9 -102l-102 -582q-1 -12 -12 -21t-23 -9q-14 0 -21 8.5t-5 21.5l102 582q8 49 8 92q0 217 -260 217q-80 0 -148 -28.5 t-113.5 -76.5t-75 -105.5t-40.5 -119.5l-100 -561q-2 -12 -12 -21t-23 -9q-14 0 -22 8q-6 6 -6 16q0 3 1 6z" />
<glyph unicode="i" horiz-adv-x="358" d="M156 14l159 901q2 12 12 21.5t25 9.5q12 0 19.5 -9.5t5.5 -21.5l-160 -901q-2 -12 -12 -21t-23 -9q-14 0 -22 8q-5 6 -5 15q0 3 1 7zM377 1239q0 59 45 59q31 0 31 -26q0 -60 -45 -60q-31 0 -31 27z" />
<glyph unicode="j" horiz-adv-x="368" d="M-164 -389q0 12 10 21.5t21 9.5q99 0 173 67t93 172l182 1034q1 12 13 21.5t24 9.5t19.5 -9.5t5.5 -21.5l-182 -1034q-25 -134 -117.5 -213.5t-218.5 -79.5q-9 0 -16 7t-7 16zM377 1239q0 59 45 59q31 0 31 -26q0 -60 -45 -60q-31 0 -31 27z" />
<glyph unicode="k" horiz-adv-x="897" d="M145 14l250 1413q2 12 12 21.5t23 9.5q12 0 20.5 -9.5t6.5 -21.5l-168 -968l659 479q11 8 21 8q11 0 19.5 -8t8.5 -20q0 -15 -16 -27l-467 -332l336 -526q6 -9 6 -21t-8.5 -20t-20.5 -8q-16 0 -24 14l-336 526l-197 -145l-63 -365q-2 -12 -12 -21t-23 -9t-21 9t-6 21z " />
<glyph unicode="l" horiz-adv-x="399" d="M174 137q0 30 6 68l215 1222q7 31 35 31q14 0 22 -9q6 -7 6 -15q0 -3 -1 -7l-215 -1222q-6 -35 -6 -62q0 -55 25 -80.5t79 -25.5q9 0 15.5 -7t6.5 -16q0 -12 -9.5 -21t-22.5 -9q-76 0 -116 39t-40 114z" />
<glyph unicode="m" horiz-adv-x="1654" d="M145 14l160 901q7 31 37 31q12 0 20 -9.5t5 -21.5l-27 -155q36 79 125 138.5t221 59.5q127 0 199.5 -56.5t93.5 -143.5q19 38 47.5 70.5t70.5 63.5t104 48.5t136 17.5q157 0 233.5 -71.5t76.5 -186.5q0 -40 -11 -104l-102 -582q-1 -12 -12 -21t-23 -9t-20 9t-6 21 l102 582q10 65 10 88q0 223 -258 223q-78 0 -141 -25t-105.5 -69t-69 -99t-38.5 -120l-103 -580q-1 -12 -11.5 -21t-22.5 -9q-13 0 -21.5 9.5t-5.5 22.5l102 580q9 50 9 94q0 217 -250 217q-78 0 -143.5 -30.5t-109.5 -82t-73 -113.5t-41 -130l-96 -537q-1 -12 -12 -21 t-23 -9t-20 9t-7 21z" />
<glyph unicode="n" horiz-adv-x="1015" d="M145 14l160 901q2 12 12 21.5t25 9.5q12 0 19.5 -9.5t5.5 -21.5l-27 -153q33 73 128.5 134.5t227.5 61.5q159 0 234.5 -71.5t75.5 -188.5q0 -50 -9 -102l-102 -582q-1 -12 -12 -21t-23 -9q-14 0 -21 8.5t-5 21.5l102 582q8 49 8 92q0 217 -260 217q-80 0 -148 -28.5 t-113.5 -76.5t-75 -105.5t-40.5 -119.5l-100 -561q-2 -12 -12 -21t-23 -9q-14 0 -22 8q-6 6 -6 16q0 3 1 6z" />
<glyph unicode="o" d="M147 317q0 95 17 183.5t56 173t97.5 146.5t149 100t201.5 38q167 0 256.5 -86t89.5 -258q0 -95 -16.5 -183.5t-55.5 -173t-97.5 -146.5t-148.5 -100t-202 -38q-167 0 -257 86t-90 258zM213 319q0 -292 291 -292q114 0 201.5 48.5t139 132t77.5 185.5t26 219 q0 293 -291 293q-92 0 -167 -32t-125.5 -87t-85.5 -130.5t-50.5 -159.5t-15.5 -177z" />
<glyph unicode="p" horiz-adv-x="1044" d="M76 -379l229 1294q2 12 12 21.5t23 9.5q14 0 22 -10t5 -23l-29 -157q120 202 375 202q166 0 256 -88.5t90 -255.5q0 -95 -16.5 -183.5t-55.5 -173t-97.5 -146.5t-148.5 -100t-202 -38q-55 0 -101 12t-75.5 32t-52.5 43.5t-35.5 47t-20.5 43.5t-10 32l-2 12l-105 -576 q-2 -12 -12 -21.5t-23 -9.5q-14 0 -22 10q-5 7 -5 16q0 3 1 7zM272 319q0 -147 74.5 -219.5t202.5 -72.5q213 0 328.5 160t115.5 425q0 150 -77.5 221.5t-213.5 71.5q-199 0 -314.5 -160t-115.5 -426z" />
<glyph unicode="q" horiz-adv-x="1005" d="M160 317q0 95 16.5 183.5t55.5 173t97.5 146.5t148.5 100t202 38q157 0 247.5 -77t90.5 -224q0 -47 -8 -94l-166 -944q-3 -13 -13 -22t-22 -9q-13 0 -21.5 9.5t-5.5 21.5l97 549q-5 -8 -15 -21t-45.5 -46.5t-75 -59.5t-104 -47t-133.5 -21q-167 0 -256.5 86t-89.5 258z M225 319q0 -292 291 -292q69 0 134 24.5t108 59.5t76 70.5t48 60.5l15 24l51 297q8 52 8 84q0 130 -76.5 194t-207.5 64q-92 0 -167.5 -32t-127 -87t-86.5 -130.5t-50.5 -159.5t-15.5 -177z" />
<glyph unicode="r" horiz-adv-x="604" d="M145 14l160 901q2 12 12 21.5t23 9.5q12 0 20.5 -9.5t6.5 -21.5l-35 -192q49 109 149.5 171t241.5 62q9 0 15.5 -6.5t6.5 -15.5q0 -12 -10 -21.5t-22 -9.5q-174 0 -281 -111.5t-139 -295.5l-86 -482q-2 -12 -12 -21t-23 -9t-21 9t-6 21z" />
<glyph unicode="s" horiz-adv-x="817" d="M76 133q0 12 8.5 20.5t19.5 8.5q17 0 25 -12q90 -123 285 -123q87 0 155.5 21.5t113 73t44.5 128.5q0 45 -27.5 80t-72 58t-98 43t-107 42.5t-98 49.5t-72 70.5t-27.5 100.5q0 127 98 195.5t246 68.5q96 0 170 -33.5t113 -86.5q6 -9 6 -19t-8 -18t-19 -8q-12 0 -20 8 q-90 104 -250 104q-52 0 -100 -12t-87.5 -35t-63 -62.5t-23.5 -90.5q0 -49 28 -87t72 -62.5t98 -45.5t108 -42.5t98 -47t72 -66t28 -92.5q0 -141 -106.5 -215t-281.5 -74q-117 0 -199.5 42t-119.5 96q-8 12 -8 22z" />
<glyph unicode="t" horiz-adv-x="552" d="M207 899q0 12 10 21.5t21 9.5h127l45 250q2 12 11.5 21t22.5 9q12 0 21 -8t6 -22l-45 -250h184q10 0 16.5 -7t6.5 -16q0 -12 -9.5 -21t-21.5 -9h-184l-115 -652q-4 -27 -4 -49q0 -68 37.5 -103.5t103.5 -35.5q9 0 16 -7t7 -16q0 -12 -10.5 -21t-22.5 -9 q-95 0 -144.5 48.5t-49.5 133.5q0 26 6 63l114 648h-127q-9 0 -15.5 6.5t-6.5 15.5z" />
<glyph unicode="u" horiz-adv-x="995" d="M174 233q0 43 10 105l101 577q7 31 37 31q12 0 19 -9.5t5 -21.5l-102 -577q-8 -44 -8 -94q0 -107 59.5 -162t208.5 -55q94 0 162 24t108.5 69.5t62 97t33.5 120.5l103 577q7 31 35 31q12 0 20 -9.5t6 -21.5l-102 -577q-11 -63 -27 -111.5t-48.5 -98.5t-78 -82t-118 -52.5 t-166.5 -20.5q-320 0 -320 260z" />
<glyph unicode="v" horiz-adv-x="876" d="M199 913q0 14 9.5 23.5t22.5 9.5q24 0 29 -20l191 -848l491 848q12 20 31 20q12 0 20 -7.5t8 -18.5q0 -9 -6 -21l-530 -899q-10 -16 -29 -16q-20 0 -26 22l-207 885q-4 16 -4 22z" />
<glyph unicode="w" horiz-adv-x="1343" d="M199 911q0 15 9 25t23 10q25 0 29 -20l152 -842l395 844q9 18 29 18t24 -18l103 -844l448 842q10 20 31 20q10 0 19 -7.5t9 -16.5q0 -7 -8 -23l-485 -895q-10 -20 -33 -20t-26 20l-99 827l-391 -827q-10 -20 -35 -20q-19 0 -22 20l-168 887q-4 16 -4 20z" />
<glyph unicode="x" horiz-adv-x="788" d="M35 14q0 13 10 23l399 440l-233 418q-6 12 -6 20q0 12 9.5 21.5t21.5 9.5q16 0 26 -16l225 -408l365 410q14 14 27 14q12 0 21 -9.5t9 -21.5q0 -9 -6 -18l-389 -426l238 -442q4 -8 4 -15q0 -12 -9.5 -21t-21.5 -9q-19 0 -27 16l-227 428l-381 -432q-12 -12 -24 -12 t-21.5 9t-9.5 21z" />
<glyph unicode="y" horiz-adv-x="991" d="M135 -231q0 52 24 96.5t51.5 72t95 61t105 48t131.5 47.5q3 1 5 2q-40 -4 -74 -4q-124 0 -202 67.5t-78 196.5q0 43 10 105l82 454q7 31 37 31q12 0 19 -9.5t5 -21.5l-82 -454q-8 -45 -8 -94q0 -103 60.5 -160t207.5 -57q72 0 132 20.5t99 52.5t68.5 75.5t44.5 84 t23 82.5l82 450q7 31 35 31q12 0 20 -9.5t6 -21.5l-168 -940q-24 -133 -94 -221.5t-168 -127t-223 -38.5q-117 0 -181.5 53.5t-64.5 127.5zM201 -219q0 -68 53 -103.5t137 -35.5q163 0 272 82.5t142 250.5l57 299q-32 -54 -86 -99t-114 -74.5t-126 -56t-125 -51.5 t-106.5 -53.5t-75.5 -68.5t-28 -90z" />
<glyph unicode="z" horiz-adv-x="794" d="M49 23q0 10 10 20l752 834h-555q-9 0 -16 6.5t-7 15.5q0 12 10 21.5t23 9.5h611q9 0 15.5 -7t6.5 -16q0 -14 -12 -26l-748 -828h596q9 0 16 -6.5t7 -15.5q0 -12 -9.5 -21.5t-21.5 -9.5h-655q-9 0 -16 7t-7 16z" />
<glyph unicode="{" horiz-adv-x="602" d="M162 602q0 12 8 20.5t20 8.5h21q212 0 254 223q16 83 30 252t27 233q17 83 73 127.5t144 44.5q9 0 16 -6.5t7 -15.5q0 -12 -10 -21.5t-21 -9.5q-59 0 -93.5 -28.5t-49.5 -90.5q-15 -63 -37.5 -238t-36.5 -249q-22 -114 -87 -180t-159 -66q80 0 123 -52.5t43 -141.5 q0 -54 -53 -275t-53 -289q0 -46 27 -70t75 -24q9 0 16 -6.5t7 -15.5q0 -12 -10.5 -21.5t-22.5 -9.5q-72 0 -115 38.5t-43 104.5q0 78 60.5 280t60.5 286q0 172 -180 172h-21q-20 0 -20 20z" />
<glyph unicode="|" horiz-adv-x="446" d="M137 -297l340 1921q2 12 12 21.5t23 9.5t22 -9.5t7 -21.5l-340 -1921q-2 -12 -13 -21.5t-24 -9.5q-14 0 -21.5 9t-5.5 22z" />
<glyph unicode="}" horiz-adv-x="602" d="M53 -276q0 12 10 21t21 9q59 0 93.5 28.5t49.5 90.5q15 63 37.5 238t36.5 249q22 114 87 180t159 66q-80 0 -123 53t-43 142q0 54 53 274.5t53 288.5q0 46 -27 70t-75 24q-9 0 -16 7t-7 16q0 12 10.5 21t22.5 9q72 0 115 -38.5t43 -104.5q0 -78 -60.5 -279.5 t-60.5 -285.5q0 -172 180 -172h21q20 0 20 -21q0 -12 -8 -20t-20 -8h-21q-212 0 -254 -224q-16 -83 -30 -252t-27 -233q-17 -83 -73 -127.5t-144 -44.5q-9 0 -16 7t-7 16z" />
<glyph unicode="~" horiz-adv-x="976" d="M197 547q0 11 8 22q13 21 33.5 43t52 48t74.5 42.5t88 16.5q52 0 99.5 -22.5t77 -49.5t71 -49.5t83.5 -22.5q35 0 66.5 12t56.5 34t39.5 38.5t32.5 40.5q14 17 31 17q9 0 15.5 -7t6.5 -16q0 -11 -8 -22q-13 -21 -33.5 -43t-52 -48t-74.5 -42.5t-88 -16.5q-47 0 -93 22.5 t-77.5 49.5t-75 49.5t-86.5 22.5q-35 0 -66 -11.5t-56.5 -34.5t-39 -38.5t-32.5 -40.5q-14 -17 -31 -17q-9 0 -15.5 7t-6.5 16z" />
<glyph unicode="&#xa1;" horiz-adv-x="288" d="M33 -418l209 1088q3 18 24 18q20 0 17 -18l-177 -1088q-6 -35 -43 -35q-36 0 -30 35zM256 899q0 28 15.5 43.5t41.5 15.5q39 0 39 -36q0 -28 -16 -44t-41 -16q-39 0 -39 37z" />
<glyph unicode="&#xa2;" horiz-adv-x="901" d="M147 317q0 287 132 457.5t360 181.5l25 140q1 12 10.5 20t21.5 8t19 -8t6 -20l-25 -140q51 -2 94.5 -15.5t68.5 -28.5t46 -36.5t28 -32t13 -22.5q4 -8 4 -18q0 -12 -8.5 -19.5t-19.5 -7.5q-16 0 -23 12q-13 21 -26 36.5t-40.5 36.5t-71.5 32.5t-102 11.5 q-141 0 -243 -77.5t-152.5 -208.5t-50.5 -300q0 -151 73 -221.5t218 -70.5q134 0 284 102q9 6 19 6q11 0 19 -7t8 -19q0 -16 -17 -27q-144 -99 -293 -107l-28 -165q-1 -12 -12 -20.5t-23 -8.5t-18.5 8.5t-4.5 20.5l29 165q-156 6 -238 91.5t-82 250.5z" />
<glyph unicode="&#xa3;" horiz-adv-x="1210" d="M170 8q0 18 16 29q45 30 88.5 70t85 91t66.5 112.5t25 121.5q0 78 -29 178h-133q-9 0 -16 7t-7 16q0 12 9.5 21.5t21.5 9.5h111q-64 171 -64 290q0 196 142 324.5t362 128.5q173 0 274.5 -79t114.5 -202q4 -36 -27 -36q-26 0 -30 26q-31 238 -340 238q-182 0 -308 -108 t-126 -283q0 -118 67 -299h391q10 0 16.5 -7t6.5 -16q0 -12 -10 -21.5t-21 -9.5h-369q25 -84 25 -166q0 -113 -62 -207.5t-143 -152.5q84 41 172 41q60 0 113.5 -16.5t86 -36t76.5 -36t87 -16.5q181 0 278 146q11 16 25 16q11 0 18.5 -6.5t7.5 -15.5q0 -11 -8 -23 q-63 -94 -141 -132t-182 -38q-51 0 -100.5 16.5t-83 36t-82 36t-97.5 16.5q-130 0 -258 -82q-12 -8 -22 -8q-12 0 -19.5 7.5t-7.5 18.5z" />
<glyph unicode="&#xa4;" horiz-adv-x="956" d="M244 246q0 12 10 22l125 131q-80 104 -80 240q0 139 82 240l-127 135q-10 10 -10 22q0 11 8 19t18 8q11 0 21 -10l129 -133q102 92 244 92q139 0 237 -88l127 129q10 10 21 10q10 0 18 -8t8 -19q0 -12 -10 -22l-125 -131q82 -106 82 -244q0 -141 -82 -242l125 -129 q10 -10 10 -22q0 -11 -8 -19t-18 -8q-11 0 -21 10l-125 127q-96 -90 -239 -90q-144 0 -246 92l-127 -129q-10 -10 -21 -10q-10 0 -18 8t-8 19zM356 639q0 -134 87.5 -227t220.5 -93t217 92.5t84 227.5t-84 227t-217 92t-220.5 -92.5t-87.5 -226.5z" />
<glyph unicode="&#xa5;" horiz-adv-x="1028" d="M246 414q0 12 9.5 21t20.5 9h283l29 154h-283q-10 0 -16 7t-6 16q0 12 9 21t21 9h285l-319 690q-5 10 -5 17q0 17 10.5 27t26.5 10q23 0 31 -19l299 -663l528 665q14 17 31 17q13 0 23 -9t10 -20q0 -14 -10 -27l-559 -688h278q10 0 16.5 -6.5t6.5 -15.5q0 -12 -10 -21.5 t-21 -9.5h-281l-28 -154h280q10 0 16.5 -6.5t6.5 -15.5q0 -12 -9.5 -21.5t-21.5 -9.5h-281l-65 -375q-3 -14 -14.5 -23t-24.5 -9q-14 0 -22 9.5t-5 22.5l66 375h-283q-9 0 -15.5 7t-6.5 16z" />
<glyph unicode="&#xa6;" horiz-adv-x="446" d="M137 -297l154 864q2 12 12 21.5t23 9.5t21.5 -9.5t6.5 -21.5l-153 -864q-2 -12 -13 -21.5t-24 -9.5q-14 0 -21.5 9t-5.5 22zM324 760l153 864q2 12 12 21.5t23 9.5t22 -9.5t7 -21.5l-154 -864q-2 -12 -13 -21.5t-24 -9.5q-14 0 -21 9t-5 22z" />
<glyph unicode="&#xa7;" horiz-adv-x="1032" d="M63 -217q0 12 9 21.5t22 9.5q18 0 29 -19q18 -32 38.5 -56t55.5 -47.5t89.5 -36.5t125.5 -13q96 0 173.5 26.5t124.5 70t72 97t25 111.5q0 68 -35 118.5t-91.5 80.5t-124.5 55t-135.5 50.5t-124 58.5t-91.5 88t-35 130q0 102 51 183t148 151q-78 82 -78 187 q0 71 28.5 134t83.5 113.5t146.5 80.5t208.5 30q127 0 220.5 -48.5t136.5 -129.5q4 -8 4 -15q0 -11 -7.5 -19.5t-19.5 -8.5q-17 0 -27 16q-19 30 -38 51t-55 47t-93 40t-131 14q-97 0 -173.5 -25.5t-122.5 -68t-69.5 -95t-23.5 -110.5q0 -68 35 -118t91.5 -80.5t124.5 -55.5 t136.5 -52t125 -60t91.5 -89t35 -131q0 -96 -60.5 -188t-142.5 -146q78 -82 78 -182q0 -72 -28 -136t-83 -116t-148 -82.5t-212 -30.5q-128 0 -220.5 47.5t-133.5 128.5q-5 10 -5 19zM254 537q0 -68 35.5 -116t96 -77.5t125 -51.5t140 -53.5t123.5 -68.5q176 133 176 293 q0 70 -34.5 119t-94.5 79.5t-123.5 52.5t-140 52.5t-125.5 64.5q-178 -122 -178 -294z" />
<glyph unicode="&#xa8;" horiz-adv-x="507" d="M248 1145q0 63 55 63q37 0 37 -30q0 -28 -13.5 -46t-41.5 -18q-37 0 -37 31zM575 1145q0 28 14 45.5t42 17.5q37 0 37 -30q0 -28 -14 -46t-42 -18q-37 0 -37 31z" />
<glyph unicode="&#xa9;" horiz-adv-x="1662" d="M256 688q0 358 177.5 538.5t504.5 180.5t504.5 -180.5t177.5 -538.5q0 -356 -177.5 -536.5t-504.5 -180.5t-504.5 180.5t-177.5 536.5zM317 688q0 -663 621 -663t621 663q0 666 -621 666t-621 -666zM606 688q0 197 85.5 287t248.5 90q89 0 158 -38.5t94 -84.5q4 -8 4 -16 q0 -10 -6.5 -17.5t-15.5 -7.5q-16 0 -23 10q-75 101 -211 101q-67 0 -115.5 -15.5t-84.5 -52t-54 -100t-18 -156.5q0 -94 17.5 -157t54.5 -97t84 -47.5t116 -13.5q67 0 123.5 24.5t85.5 73.5q7 12 22 12q9 0 17 -7t8 -17q0 -12 -6 -21q-38 -54 -105.5 -87.5t-144.5 -33.5 q-164 0 -249 87t-85 284z" />
<glyph unicode="&#xaa;" horiz-adv-x="780" d="M184 580q0 12 10 21t21 9h561q9 0 16 -6.5t7 -15.5q0 -12 -9.5 -21.5t-21.5 -9.5h-561q-9 0 -16 7t-7 16zM274 975q0 112 43.5 209.5t129 160t194.5 62.5t184 -66l6 31q1 10 10.5 18.5t20.5 8.5t18.5 -8.5t4.5 -18.5l-109 -600q-1 -10 -10.5 -18.5t-20.5 -8.5 q-10 0 -17 8t-5 19l25 125q-32 -69 -93.5 -113.5t-154.5 -44.5q-108 0 -167 64.5t-59 171.5zM332 975q0 -89 45 -135.5t133 -46.5q105 0 176.5 85t95.5 224l33 184q-68 68 -176 68q-126 0 -216.5 -103.5t-90.5 -275.5z" />
<glyph unicode="&#xab;" horiz-adv-x="950" d="M199 430q0 11 10 21l430 421q9 9 20 9t20 -8.5t9 -20.5q0 -13 -8 -21l-416 -401l268 -395q7 -10 7 -19q0 -12 -8.5 -20t-20.5 -8q-14 0 -23 12l-282 414q-6 9 -6 16zM485 430q0 10 11 21l430 421q9 9 20 9t20 -8.5t9 -20.5q0 -13 -8 -21l-416 -401l268 -395q6 -9 6 -19 q0 -12 -8 -20t-20 -8q-14 0 -23 12l-282 414q-7 10 -7 16z" />
<glyph unicode="&#xac;" horiz-adv-x="1153" d="M213 598q0 12 10 21.5t21 9.5h884q10 0 17.5 -8t5.5 -19l-84 -473q-2 -12 -12 -21.5t-23 -9.5t-21 9.5t-5 21.5l77 446h-847q-9 0 -16 7t-7 16z" />
<glyph unicode="&#xad;" horiz-adv-x="577" d="M164 512q0 12 9.5 21.5t21.5 9.5h374q9 0 16 -7t7 -16q0 -12 -9.5 -21.5t-21.5 -9.5h-375q-9 0 -15.5 7t-6.5 16z" />
<glyph unicode="&#xae;" horiz-adv-x="772" d="M287 1096q0 156 78 233.5t221 77.5q146 0 223.5 -77t77.5 -234t-78 -235.5t-223 -78.5q-143 0 -221 78.5t-78 235.5zM332 1096q0 -273 254 -273q256 0 256 273q0 270 -256 270q-124 0 -189 -67t-65 -203zM475 956v277q0 9 7 15.5t16 6.5h118q45 0 70 -28.5t25 -69.5 q0 -38 -23.5 -65.5t-60.5 -30.5l69 -86q9 -9 9 -19q0 -9 -7 -15.5t-16 -6.5q-11 0 -20 12l-84 115h-58v-105q0 -9 -6.5 -15.5t-15.5 -6.5t-16 6.5t-7 15.5zM520 1102h86q27 0 42.5 15t15.5 40q0 57 -58 57h-86v-112z" />
<glyph unicode="&#xaf;" horiz-adv-x="782" d="M354 1157q0 12 9.5 21.5t21.5 9.5h430q10 0 16.5 -7t6.5 -16q0 -12 -9 -21t-22 -9h-430q-9 0 -16 6.5t-7 15.5z" />
<glyph unicode="&#xb0;" horiz-adv-x="729" d="M289 1126q0 117 81.5 199t198.5 82t199 -82t82 -199t-82 -198.5t-199 -81.5t-198.5 81.5t-81.5 198.5zM342 1124q0 -93 64.5 -159t160.5 -66t163 66t67 159t-67 161.5t-163 68.5q-95 0 -160 -68t-65 -162z" />
<glyph unicode="&#xb1;" horiz-adv-x="929" d="M4 23q0 12 10 21t21 9h876q9 0 16 -6.5t7 -15.5q0 -12 -9.5 -21.5t-21.5 -9.5h-876q-9 0 -16 7t-7 16zM111 623q0 12 9 21t21 9h408l72 408q2 12 12.5 21.5t23.5 9.5q12 0 19.5 -9.5t5.5 -21.5l-72 -408h408q9 0 15.5 -6.5t6.5 -15.5q0 -12 -9.5 -21.5t-20.5 -9.5h-408 l-72 -405q-1 -12 -12.5 -21.5t-23.5 -9.5t-19.5 9.5t-5.5 21.5l72 405h-408q-10 0 -16 7t-6 16z" />
<glyph unicode="&#xb2;" horiz-adv-x="530" d="M207 889q0 53 25 93t65 65.5t88 47t96 42.5t88 46t65 64t25 90t-34.5 82t-106.5 31q-101 0 -162 -98q-9 -15 -22 -15q-9 0 -16 6t-7 15t6 18q68 119 209 119q87 0 137 -42t50 -110q0 -58 -25 -104t-65 -75t-88 -52.5t-96.5 -43t-88.5 -40t-65 -49t-25 -64.5h352 q19 0 19 -18q0 -11 -8.5 -19t-18.5 -8h-379q-7 0 -12.5 5.5t-5.5 13.5z" />
<glyph unicode="&#xb3;" horiz-adv-x="526" d="M219 977q0 9 6.5 15.5t16.5 6.5q14 0 20 -14q19 -44 53 -63t97 -19q105 0 152.5 44.5t47.5 137.5q0 56 -33 84.5t-110 28.5h-41q-22 0 -22 19q0 12 10 22l213 199h-275q-20 0 -20 18q0 11 8 19t18 8h326q9 0 15 -5.5t6 -13.5q0 -9 -15 -24l-215 -199h25q80 0 122 -44.5 t42 -109.5q0 -106 -63 -167.5t-200 -61.5q-71 0 -117.5 27.5t-62.5 72.5q-4 12 -4 19z" />
<glyph unicode="&#xb4;" horiz-adv-x="757" d="M444 1069q-16 15 2 33l246 241q25 25 45 3q20 -23 -6 -46l-254 -229q-19 -16 -33 -2z" />
<glyph unicode="&#xb5;" horiz-adv-x="995" d="M53 -389l232 1304q2 13 11 22t23 9q12 0 20.5 -9.5t6.5 -21.5l-102 -577q-8 -44 -8 -96q0 -102 59.5 -158.5t206.5 -56.5q94 0 162 24t108.5 69.5t62.5 97t35 120.5l103 577q1 12 12 21.5t23 9.5t20 -9.5t6 -21.5l-102 -577q-11 -61 -28.5 -111t-51 -99t-80 -82 t-117.5 -53t-161 -20q-119 0 -194 41.5t-95 106.5l-90 -510q-1 -12 -12 -21.5t-23 -9.5q-14 0 -21.5 9t-5.5 22z" />
<glyph unicode="&#xb6;" horiz-adv-x="888" d="M39 -23q0 12 9.5 19.5t19.5 7.5t22 -4q46 -14 98 -14q146 0 235.5 109t123.5 300l59 340h-112q-118 0 -192.5 79t-74.5 196q0 149 113 258.5t268 109.5h461q10 0 16.5 -6.5t6.5 -15.5q0 -12 -10.5 -21.5t-22.5 -9.5h-66l-119 -674q-67 -375 -237.5 -547t-458.5 -172 q-80 0 -123 21q-16 8 -16 24zM416 23q70 27 126 69.5t109 113.5t94 183t68 262l119 674h-158l-164 -924q-24 -136 -69.5 -222.5t-124.5 -155.5z" />
<glyph unicode="&#xb7;" horiz-adv-x="335" d="M213 602q0 76 70 76q49 0 49 -47q0 -76 -70 -76q-49 0 -49 47z" />
<glyph unicode="&#xb8;" horiz-adv-x="645" d="M82 -408q0 9 6 15t14 6t17 -6q44 -27 92 -27q82 0 124 43t42 121q0 100 -103 100q-24 0 -49 -6t-30 -6q-9 0 -14.5 8.5t-2.5 18.5l33 141h41l-33 -127q29 8 62 8q68 0 106.5 -34.5t38.5 -98.5q0 -94 -52.5 -150.5t-162.5 -56.5q-77 0 -117 31q-12 9 -12 20z" />
<glyph unicode="&#xb9;" horiz-adv-x="356" d="M281 1356q0 14 14 22l170 103q13 8 22 8t14.5 -7.5t4.5 -17.5l-100 -575q-1 -10 -9.5 -17.5t-19.5 -7.5q-10 0 -16.5 7t-4.5 18l97 532l-131 -82q-12 -6 -21 -6q-8 0 -14 6.5t-6 16.5z" />
<glyph unicode="&#xba;" horiz-adv-x="681" d="M121 580q0 12 10 21t21 9h591q9 0 16 -6.5t7 -15.5q0 -12 -9.5 -21.5t-21.5 -9.5h-592q-9 0 -15.5 7t-6.5 16zM233 973q0 63 12 123t39 117t67 99.5t101 68.5t136 26q237 0 237 -233q0 -80 -19.5 -154t-60 -138.5t-111 -103.5t-163.5 -39q-116 0 -177 58.5t-61 175.5z M293 981q0 -188 186 -188q73 0 130 32t90 85.5t50 118t17 136.5q0 189 -186 189q-73 0 -130 -32t-90 -86t-50 -118.5t-17 -136.5z" />
<glyph unicode="&#xbb;" horiz-adv-x="948" d="M125 16q0 13 8 21l416 401l-268 396q-7 10 -7 18q0 12 8.5 20.5t20.5 8.5q13 0 23 -13l282 -413q6 -9 6 -17q0 -10 -10 -20l-430 -422q-8 -8 -20 -8q-11 0 -20 8t-9 20zM412 16q0 13 8 21l416 401l-269 396q-6 9 -6 18q0 12 8.5 20.5t20.5 8.5t22 -13l283 -413 q6 -9 6 -17q0 -10 -10 -20l-430 -422q-8 -8 -21 -8q-11 0 -19.5 8t-8.5 20z" />
<glyph unicode="&#xbc;" horiz-adv-x="960" d="M182 4q0 8 4 16l764 1358q8 17 25 17q9 0 15.5 -6.5t6.5 -14.5t-4 -16l-764 -1358q-8 -16 -24 -16q-9 0 -16 6t-7 14zM301 1268q0 14 14 22l170 103q13 8 23 8q9 0 14 -7.5t4 -17.5l-100 -575q-1 -10 -9.5 -17.5t-19.5 -7.5q-10 0 -16 7t-4 18l96 532l-131 -82 q-12 -6 -20 -6t-14.5 6.5t-6.5 16.5zM467 158q0 10 10 20l371 416q14 14 26 14q11 0 16.5 -7t4.5 -17l-70 -400h64q7 0 12.5 -5t5.5 -13q0 -11 -8 -19t-18 -8h-64l-22 -131q-1 -10 -9.5 -17t-19.5 -7t-16.5 7t-4.5 17l23 131h-281q-9 0 -14.5 5.5t-5.5 13.5zM537 184h239 l58 330z" />
<glyph unicode="&#xbd;" horiz-adv-x="1044" d="M182 4q0 8 4 16l764 1358q8 17 25 17q9 0 15.5 -6.5t6.5 -14.5t-4 -16l-764 -1358q-8 -16 -24 -16q-9 0 -16 6t-7 14zM301 1268q0 14 14 22l170 103q13 8 23 8q9 0 14 -7.5t4 -17.5l-100 -575q-1 -10 -9.5 -17.5t-19.5 -7.5q-10 0 -16 7t-4 18l96 532l-131 -82 q-12 -6 -20 -6t-14.5 6.5t-6.5 16.5zM565 18q0 46 19.5 83.5t51.5 61t72.5 45.5t83 37.5t83 37t72.5 44.5t51.5 59t19.5 81q0 51 -34.5 82t-106.5 31q-100 0 -162 -99q-8 -14 -23 -14q-9 0 -15.5 5.5t-6.5 14.5q0 10 6 19q68 119 209 119q87 0 136.5 -41.5t49.5 -110.5 q0 -58 -25 -104t-65 -75t-88.5 -52.5t-96.5 -43t-88 -40t-65 -49t-25 -64.5h353q18 0 18 -18q0 -11 -8 -19t-18 -8h-379q-8 0 -13.5 5.5t-5.5 12.5z" />
<glyph unicode="&#xbe;" horiz-adv-x="1071" d="M205 889q0 22 22 22q15 0 21 -14q19 -45 52.5 -63.5t96.5 -18.5q105 0 153 45t48 137q0 56 -33 84.5t-110 28.5h-41q-23 0 -23 18q0 13 10 23l213 199h-274q-9 0 -15 5t-6 13q0 10 8.5 18.5t18.5 8.5h326q9 0 14.5 -5.5t5.5 -13.5q0 -10 -14 -24l-215 -199h24 q80 0 122 -44.5t42 -109.5q0 -106 -62.5 -167.5t-199.5 -61.5q-71 0 -117.5 27.5t-62.5 72.5q-4 12 -4 19zM297 4q0 8 4 16l764 1358q9 17 25 17q9 0 15.5 -6.5t6.5 -14.5t-4 -16l-764 -1358q-8 -16 -25 -16q-9 0 -15.5 6t-6.5 14zM582 158q0 10 10 20l371 416q14 14 26 14 q11 0 16.5 -7t4.5 -17l-70 -400h64q8 0 13 -5t5 -13q0 -10 -8 -18.5t-19 -8.5h-63l-23 -131q-1 -10 -9 -17t-19 -7t-16.5 7t-4.5 17l23 131h-281q-9 0 -14.5 5.5t-5.5 13.5zM651 184h240l57 330z" />
<glyph unicode="&#xbf;" horiz-adv-x="944" d="M61 -172q0 104 32 183.5t82.5 128t112 86.5t123 68.5t112 62.5t82.5 80.5t32 111.5q0 45 -23 92q-6 12 -6 18q0 14 9.5 22.5t21.5 8.5q17 0 27 -14q32 -45 32 -127q0 -57 -19.5 -103.5t-53 -78.5t-76.5 -59t-90.5 -51t-95.5 -50t-91 -59.5t-76.5 -75t-53 -102.5 t-19.5 -136q0 -116 75 -181t212 -65q318 0 372 312q1 12 12 21t23 9q14 0 21.5 -9.5t5.5 -20.5q-9 -59 -27 -109t-52.5 -98.5t-81.5 -82.5t-118 -54.5t-159 -20.5q-167 0 -256 79t-89 214zM643 899q0 28 15.5 43.5t41.5 15.5q39 0 39 -36q0 -28 -15.5 -44t-41.5 -16 q-39 0 -39 37z" />
<glyph unicode="&#xc0;" horiz-adv-x="1261" d="M70 12q0 10 8 23l762 1337q12 23 34 23q12 0 20.5 -7t10.5 -16l293 -1339q5 -19 -5.5 -34t-31.5 -15q-25 0 -31 30l-88 424h-665l-246 -434q-11 -20 -33 -20q-13 0 -20.5 8.5t-7.5 19.5zM410 498h622l-170 794zM692 1761q20 23 45 -2l246 -241q17 -18 2 -33 q-14 -14 -33 2l-254 229q-26 22 -6 45z" />
<glyph unicode="&#xc1;" horiz-adv-x="1261" d="M70 12q0 10 8 23l762 1337q12 23 34 23q12 0 20.5 -7t10.5 -16l293 -1339q5 -19 -5.5 -34t-31.5 -15q-25 0 -31 30l-88 424h-665l-246 -434q-11 -20 -33 -20q-13 0 -20.5 8.5t-7.5 19.5zM410 498h622l-170 794zM793 1485q-15 15 2 33l245 241q25 25 45 2t-6 -45 l-254 -229q-18 -16 -32 -2z" />
<glyph unicode="&#xc2;" horiz-adv-x="1261" d="M70 12q0 10 8 23l762 1337q12 23 34 23q12 0 20.5 -7t10.5 -16l293 -1339q5 -19 -5.5 -34t-31.5 -15q-25 0 -31 30l-88 424h-665l-246 -434q-11 -20 -33 -20q-13 0 -20.5 8.5t-7.5 19.5zM410 498h622l-170 794zM662 1511q0 14 12 23l237 180q13 10 23 10t20 -10l170 -182 q9 -9 9 -21q0 -10 -8 -18t-19 -8q-13 0 -25 12l-151 168l-223 -172q-12 -8 -21 -8t-16.5 8t-7.5 18z" />
<glyph unicode="&#xc3;" horiz-adv-x="1261" d="M70 12q0 10 8 23l762 1337q12 23 34 23q12 0 20.5 -7t10.5 -16l293 -1339q5 -19 -5.5 -34t-31.5 -15q-25 0 -31 30l-88 424h-665l-246 -434q-11 -20 -33 -20q-13 0 -20.5 8.5t-7.5 19.5zM410 498h622l-170 794zM598 1516q0 8 6 20q20 40 63.5 71t100.5 31q49 0 93.5 -22 t86 -44t82.5 -22q31 0 54.5 13t35 27t27.5 40q10 17 27 17q9 0 16.5 -7t7.5 -16q0 -8 -6 -20q-60 -107 -168 -107q-49 0 -92.5 22t-84 44t-81.5 22q-71 0 -119 -78q-8 -14 -24 -14q-9 0 -17 7t-8 16z" />
<glyph unicode="&#xc4;" horiz-adv-x="1261" d="M70 12q0 10 8 23l762 1337q12 23 34 23q12 0 20.5 -7t10.5 -16l293 -1339q5 -19 -5.5 -34t-31.5 -15q-25 0 -31 30l-88 424h-665l-246 -434q-11 -20 -33 -20q-13 0 -20.5 8.5t-7.5 19.5zM410 498h622l-170 794zM694 1548q0 28 14 46t42 18q36 0 36 -31q0 -63 -55 -63 q-37 0 -37 30zM1022 1548q0 28 13.5 46t41.5 18q37 0 37 -31q0 -63 -55 -63q-37 0 -37 30z" />
<glyph unicode="&#xc5;" horiz-adv-x="1261" d="M70 12q0 10 8 23l762 1337q12 23 34 23q12 0 20.5 -7t10.5 -16l293 -1339q5 -19 -5.5 -34t-31.5 -15q-25 0 -31 30l-88 424h-665l-246 -434q-11 -20 -33 -20q-13 0 -20.5 8.5t-7.5 19.5zM410 498h622l-170 794zM705 1599q0 107 64.5 174.5t186.5 67.5q91 0 136 -42 t45 -118q0 -106 -65 -173.5t-187 -67.5q-91 0 -135.5 41.5t-44.5 117.5zM758 1602q0 -59 32.5 -88t102.5 -29q95 0 142.5 52t47.5 142q0 59 -32.5 88t-102.5 29q-95 0 -142.5 -52t-47.5 -142z" />
<glyph unicode="&#xc6;" horiz-adv-x="1748" d="M31 12q0 15 10 27l1081 1317q19 22 43 22h688q11 0 18 -7t7 -17q0 -13 -10.5 -23t-24.5 -10h-659l-107 -598h516q11 0 18 -7.5t7 -17.5q0 -13 -10.5 -22.5t-24.5 -9.5h-516l-106 -609h686q11 0 17.5 -6.5t6.5 -17.5q0 -13 -10.5 -23t-24.5 -10h-718q-14 0 -22 10t-5 23 l72 405h-517l-356 -440q-12 -14 -31 -14q-11 0 -19.5 8t-8.5 20zM492 498h481l133 753z" />
<glyph unicode="&#xc7;" horiz-adv-x="1273" d="M193 483q0 148 28.5 282.5t89.5 252.5t151 204t220.5 135.5t288.5 49.5q140 0 246.5 -58.5t168.5 -154.5q7 -10 7 -20q0 -12 -9.5 -21.5t-21.5 -9.5q-17 0 -27 16q-121 191 -374 191q-146 0 -265 -47.5t-199 -129t-135 -192.5t-79.5 -235t-24.5 -261q0 -456 471 -456 q118 0 231.5 48.5t206.5 141.5q12 12 25 12q12 0 21.5 -9t9.5 -21t-11 -23q-96 -96 -222.5 -151.5t-264.5 -55.5q-12 0 -32.5 1t-30.5 1l-25 -100q28 8 61 8q68 0 107 -34.5t39 -98.5q0 -94 -52.5 -150.5t-162.5 -56.5q-77 0 -117 31q-12 9 -12 20q0 9 6 15t14 6t17 -6 q44 -27 92 -27q82 0 124 43t42 121q0 100 -103 100q-24 0 -49.5 -6t-30.5 -6q-9 0 -14 8.5t-2 18.5l27 118q-208 24 -319 151t-111 355z" />
<glyph unicode="&#xc8;" horiz-adv-x="1048" d="M186 33l232 1313q3 14 13.5 23t23.5 9h694q25 0 25 -24q0 -13 -10.5 -23t-24.5 -10h-662l-104 -598h516q10 0 17 -7t7 -18q0 -13 -10 -22.5t-24 -9.5h-517l-106 -609h686q23 0 23 -24q0 -13 -9.5 -23t-23.5 -10h-721q-13 0 -20.5 9.5t-4.5 23.5zM662 1761q20 23 45 -2 l245 -241q18 -18 2 -33q-14 -14 -32 2l-254 229q-26 22 -6 45z" />
<glyph unicode="&#xc9;" horiz-adv-x="1048" d="M186 33l232 1313q3 14 13.5 23t23.5 9h694q25 0 25 -24q0 -13 -10.5 -23t-24.5 -10h-662l-104 -598h516q10 0 17 -7t7 -18q0 -13 -10 -22.5t-24 -9.5h-517l-106 -609h686q23 0 23 -24q0 -13 -9.5 -23t-23.5 -10h-721q-13 0 -20.5 9.5t-4.5 23.5zM741 1485q-15 15 2 33 l246 241q25 25 45 2t-6 -45l-254 -229q-19 -16 -33 -2z" />
<glyph unicode="&#xca;" horiz-adv-x="1048" d="M186 33l232 1313q3 14 13.5 23t23.5 9h694q25 0 25 -24q0 -13 -10.5 -23t-24.5 -10h-662l-104 -598h516q10 0 17 -7t7 -18q0 -13 -10 -22.5t-24 -9.5h-517l-106 -609h686q23 0 23 -24q0 -13 -9.5 -23t-23.5 -10h-721q-13 0 -20.5 9.5t-4.5 23.5zM606 1511q0 14 12 23 l238 180q13 10 23 10t20 -10l170 -182q8 -8 8 -21q0 -11 -7.5 -18.5t-18.5 -7.5q-13 0 -25 12l-152 168l-223 -172q-12 -8 -20 -8q-9 0 -17 8t-8 18z" />
<glyph unicode="&#xcb;" horiz-adv-x="1048" d="M186 33l232 1313q3 14 13.5 23t23.5 9h694q25 0 25 -24q0 -13 -10.5 -23t-24.5 -10h-662l-104 -598h516q10 0 17 -7t7 -18q0 -13 -10 -22.5t-24 -9.5h-517l-106 -609h686q23 0 23 -24q0 -13 -9.5 -23t-23.5 -10h-721q-13 0 -20.5 9.5t-4.5 23.5zM641 1548q0 28 13.5 46 t41.5 18q37 0 37 -31q0 -63 -55 -63q-37 0 -37 30zM969 1548q0 28 13.5 46t41.5 18q37 0 37 -31q0 -63 -55 -63q-37 0 -37 30z" />
<glyph unicode="&#xcc;" horiz-adv-x="434" d="M188 16l236 1346q3 14 14.5 23.5t24.5 9.5q14 0 21.5 -10t4.5 -23l-235 -1346q-6 -32 -39 -32q-14 0 -22 9.5t-5 22.5zM285 1761q20 23 45 -2l245 -241q18 -18 3 -33q-14 -14 -33 2l-254 229q-26 22 -6 45z" />
<glyph unicode="&#xcd;" horiz-adv-x="434" d="M188 16l236 1346q3 14 14.5 23.5t24.5 9.5q14 0 21.5 -10t4.5 -23l-235 -1346q-6 -32 -39 -32q-14 0 -22 9.5t-5 22.5zM399 1485q-15 15 2 33l246 241q25 25 45 2t-6 -45l-254 -229q-19 -16 -33 -2z" />
<glyph unicode="&#xce;" horiz-adv-x="434" d="M188 16l236 1346q3 14 14.5 23.5t24.5 9.5q14 0 21.5 -10t4.5 -23l-235 -1346q-6 -32 -39 -32q-14 0 -22 9.5t-5 22.5zM242 1511q0 14 12 23l238 180q13 10 22 10q11 0 21 -10l170 -182q8 -8 8 -21q0 -10 -8 -18t-19 -8q-12 0 -24 12l-152 168l-223 -172q-12 -8 -21 -8 t-16.5 8t-7.5 18z" />
<glyph unicode="&#xcf;" horiz-adv-x="434" d="M188 16l236 1346q3 14 14.5 23.5t24.5 9.5q14 0 21.5 -10t4.5 -23l-235 -1346q-6 -32 -39 -32q-14 0 -22 9.5t-5 22.5zM279 1548q0 28 13.5 46t41.5 18q37 0 37 -31q0 -28 -14 -45.5t-42 -17.5q-36 0 -36 30zM606 1548q0 28 14 46t42 18q36 0 36 -31q0 -63 -55 -63 q-37 0 -37 30z" />
<glyph unicode="&#xd0;" horiz-adv-x="1243" d="M174 711q0 12 10 21t21 9h108l107 605q3 14 14.5 23t24.5 9h305q258 0 393 -113t135 -362q0 -145 -24.5 -273.5t-82 -245.5t-144.5 -201t-220.5 -133.5t-300.5 -49.5h-305q-14 0 -22 10t-5 23l115 655h-106q-9 0 -16 7t-7 16zM258 57h272q330 0 513.5 217t183.5 619 q0 229 -120.5 328.5t-352.5 99.5h-273l-102 -580h471q22 0 22 -22q0 -12 -9 -21.5t-21 -9.5h-473z" />
<glyph unicode="&#xd1;" horiz-adv-x="1271" d="M166 14l240 1350q2 12 11.5 21.5t22.5 9.5q20 0 27 -17l600 -1265l221 1251q2 12 12 21.5t23 9.5q12 0 20.5 -9.5t6.5 -21.5l-238 -1348q-3 -14 -14.5 -23t-24.5 -9q-20 0 -29 18l-595 1270l-222 -1258q-2 -12 -11.5 -21t-22.5 -9t-21.5 8.5t-5.5 21.5zM625 1516 q0 8 6 20q20 40 63.5 71t100.5 31q49 0 93.5 -22t86 -44t82.5 -22q31 0 54.5 13t35 27t27.5 40q10 17 26 17q9 0 17 -7t8 -16q0 -8 -6 -20q-60 -107 -168 -107q-49 0 -92.5 22t-84 44t-81.5 22q-71 0 -119 -78q-8 -14 -25 -14q-9 0 -16.5 7t-7.5 16z" />
<glyph unicode="&#xd2;" horiz-adv-x="1441" d="M193 483q0 148 28 282.5t89.5 252.5t150 204t217.5 135.5t285 49.5q255 0 392.5 -129t137.5 -383q0 -148 -28 -282.5t-89.5 -252.5t-150 -204t-217.5 -135.5t-285 -49.5q-255 0 -392.5 129t-137.5 383zM258 485q0 -456 469 -456q145 0 263.5 47.5t198.5 128.5t134.5 192 t79 235t24.5 261q0 457 -469 457q-145 0 -263.5 -47.5t-198.5 -129t-134.5 -192.5t-79 -235t-24.5 -261zM829 1761q20 23 45 -2l246 -241q18 -18 2 -33q-14 -14 -32 2l-254 229q-26 23 -7 45z" />
<glyph unicode="&#xd3;" horiz-adv-x="1441" d="M193 483q0 148 28 282.5t89.5 252.5t150 204t217.5 135.5t285 49.5q255 0 392.5 -129t137.5 -383q0 -148 -28 -282.5t-89.5 -252.5t-150 -204t-217.5 -135.5t-285 -49.5q-255 0 -392.5 129t-137.5 383zM258 485q0 -456 469 -456q145 0 263.5 47.5t198.5 128.5t134.5 192 t79 235t24.5 261q0 457 -469 457q-145 0 -263.5 -47.5t-198.5 -129t-134.5 -192.5t-79 -235t-24.5 -261zM907 1485q-15 15 2 33l246 241q25 25 45 2t-6 -45l-254 -229q-19 -16 -33 -2z" />
<glyph unicode="&#xd4;" horiz-adv-x="1441" d="M193 483q0 148 28 282.5t89.5 252.5t150 204t217.5 135.5t285 49.5q255 0 392.5 -129t137.5 -383q0 -148 -28 -282.5t-89.5 -252.5t-150 -204t-217.5 -135.5t-285 -49.5q-255 0 -392.5 129t-137.5 383zM258 485q0 -456 469 -456q145 0 263.5 47.5t198.5 128.5t134.5 192 t79 235t24.5 261q0 457 -469 457q-145 0 -263.5 -47.5t-198.5 -129t-134.5 -192.5t-79 -235t-24.5 -261zM772 1511q0 14 12 23l238 180q13 10 22 10q11 0 21 -10l170 -182q8 -8 8 -21q0 -11 -7.5 -18.5t-18.5 -7.5q-13 0 -25 12l-152 168l-223 -172q-12 -8 -20 -8 q-9 0 -17 8t-8 18z" />
<glyph unicode="&#xd5;" horiz-adv-x="1441" d="M193 483q0 148 28 282.5t89.5 252.5t150 204t217.5 135.5t285 49.5q255 0 392.5 -129t137.5 -383q0 -148 -28 -282.5t-89.5 -252.5t-150 -204t-217.5 -135.5t-285 -49.5q-255 0 -392.5 129t-137.5 383zM258 485q0 -456 469 -456q145 0 263.5 47.5t198.5 128.5t134.5 192 t79 235t24.5 261q0 457 -469 457q-145 0 -263.5 -47.5t-198.5 -129t-134.5 -192.5t-79 -235t-24.5 -261zM698 1516q0 6 7 20q21 40 63.5 71t99.5 31q49 0 93.5 -22t86 -44t82.5 -22q31 0 54.5 13t35 27t27.5 40q10 17 27 17q9 0 16.5 -7t7.5 -16q0 -8 -6 -20 q-60 -107 -168 -107q-49 0 -92.5 22t-84 44t-81.5 22q-42 0 -69 -20.5t-49 -57.5q-8 -14 -25 -14q-9 0 -17 7t-8 16z" />
<glyph unicode="&#xd6;" horiz-adv-x="1441" d="M193 483q0 148 28 282.5t89.5 252.5t150 204t217.5 135.5t285 49.5q255 0 392.5 -129t137.5 -383q0 -148 -28 -282.5t-89.5 -252.5t-150 -204t-217.5 -135.5t-285 -49.5q-255 0 -392.5 129t-137.5 383zM258 485q0 -456 469 -456q145 0 263.5 47.5t198.5 128.5t134.5 192 t79 235t24.5 261q0 457 -469 457q-145 0 -263.5 -47.5t-198.5 -129t-134.5 -192.5t-79 -235t-24.5 -261zM784 1548q0 28 14 46t42 18q37 0 37 -31q0 -28 -14 -45.5t-42 -17.5q-37 0 -37 30zM1112 1548q0 28 13.5 46t41.5 18q37 0 37 -31q0 -63 -55 -63q-37 0 -37 30z" />
<glyph unicode="&#xd7;" horiz-adv-x="696" d="M23 131q0 15 12 25l348 290l-242 297q-6 9 -6 19q0 12 9.5 21.5t21.5 9.5q11 0 20 -9l244 -297l350 297q9 9 21 9t21 -9.5t9 -21.5q0 -15 -12 -25l-352 -291l246 -296q6 -9 6 -19q0 -12 -9.5 -21.5t-21.5 -9.5q-11 0 -20 9l-248 297l-344 -295q-11 -11 -23 -11t-21 10 t-9 21z" />
<glyph unicode="&#xd8;" horiz-adv-x="1441" d="M123 -25q0 11 10 21l152 156q-92 124 -92 331q0 148 28 282.5t89.5 252.5t150 204t217.5 135.5t285 49.5q265 0 403 -141l147 151q10 10 23 10q10 0 17.5 -7.5t7.5 -16.5q0 -10 -9 -19l-153 -157q94 -126 94 -332q0 -148 -28 -282.5t-89.5 -252.5t-150 -204 t-217.5 -135.5t-285 -49.5q-270 0 -406 142l-147 -152q-10 -10 -23 -10q-10 0 -17 7.5t-7 16.5zM258 485q0 -176 72 -286l993 1022q-117 129 -365 129q-145 0 -263.5 -47.5t-198.5 -129t-134.5 -192.5t-79 -235t-24.5 -261zM360 158q117 -129 367 -129q145 0 263.5 47.5 t198.5 128.5t134.5 192t79 235t24.5 261q0 180 -73 287z" />
<glyph unicode="&#xd9;" horiz-adv-x="1284" d="M246 293q0 51 10 113l168 956q3 14 13.5 23.5t25.5 9.5q14 0 21.5 -10t4.5 -23l-167 -956q-11 -64 -11 -103q0 -60 16.5 -107t54 -86t107 -60t168.5 -21q96 0 172.5 21.5t126.5 56t86 85t54.5 101.5t29.5 113l168 956q3 14 14.5 23.5t24.5 9.5q14 0 22 -10t5 -23 l-168 -956q-13 -74 -34.5 -133t-63 -117.5t-99 -97.5t-146.5 -63t-202 -24q-111 0 -191 25.5t-124.5 71t-65 101t-20.5 124.5zM758 1761q20 23 45 -2l246 -241q17 -18 2 -33q-14 -14 -33 2l-254 229q-26 22 -6 45z" />
<glyph unicode="&#xda;" horiz-adv-x="1284" d="M246 293q0 51 10 113l168 956q3 14 13.5 23.5t25.5 9.5q14 0 21.5 -10t4.5 -23l-167 -956q-11 -64 -11 -103q0 -60 16.5 -107t54 -86t107 -60t168.5 -21q96 0 172.5 21.5t126.5 56t86 85t54.5 101.5t29.5 113l168 956q3 14 14.5 23.5t24.5 9.5q14 0 22 -10t5 -23 l-168 -956q-13 -74 -34.5 -133t-63 -117.5t-99 -97.5t-146.5 -63t-202 -24q-111 0 -191 25.5t-124.5 71t-65 101t-20.5 124.5zM834 1485q-16 15 2 33l245 241q25 25 45 2t-6 -45l-254 -229q-18 -16 -32 -2z" />
<glyph unicode="&#xdb;" horiz-adv-x="1284" d="M246 293q0 51 10 113l168 956q3 14 13.5 23.5t25.5 9.5q14 0 21.5 -10t4.5 -23l-167 -956q-11 -64 -11 -103q0 -60 16.5 -107t54 -86t107 -60t168.5 -21q96 0 172.5 21.5t126.5 56t86 85t54.5 101.5t29.5 113l168 956q3 14 14.5 23.5t24.5 9.5q14 0 22 -10t5 -23 l-168 -956q-13 -74 -34.5 -133t-63 -117.5t-99 -97.5t-146.5 -63t-202 -24q-111 0 -191 25.5t-124.5 71t-65 101t-20.5 124.5zM692 1511q0 13 13 23l237 180q13 10 23 10t20 -10l170 -182q8 -8 8 -21q0 -11 -7.5 -18.5t-18.5 -7.5q-13 0 -25 12l-151 168l-224 -172 q-12 -8 -20 -8q-9 0 -17 8t-8 18z" />
<glyph unicode="&#xdc;" horiz-adv-x="1284" d="M246 293q0 51 10 113l168 956q3 14 13.5 23.5t25.5 9.5q14 0 21.5 -10t4.5 -23l-167 -956q-11 -64 -11 -103q0 -60 16.5 -107t54 -86t107 -60t168.5 -21q96 0 172.5 21.5t126.5 56t86 85t54.5 101.5t29.5 113l168 956q3 14 14.5 23.5t24.5 9.5q14 0 22 -10t5 -23 l-168 -956q-13 -74 -34.5 -133t-63 -117.5t-99 -97.5t-146.5 -63t-202 -24q-111 0 -191 25.5t-124.5 71t-65 101t-20.5 124.5zM717 1548q0 28 13.5 46t41.5 18q37 0 37 -31q0 -63 -55 -63q-37 0 -37 30zM1044 1548q0 28 14 46t42 18q37 0 37 -31q0 -28 -14 -45.5t-42 -17.5 q-37 0 -37 30z" />
<glyph unicode="&#xdd;" horiz-adv-x="1030" d="M279 1360q0 14 10.5 24.5t23.5 10.5q24 0 33 -23l291 -659l532 665q14 17 31 17q13 0 23 -10.5t10 -22.5q0 -14 -10 -27l-559 -684l-113 -635q-1 -13 -13 -22.5t-26 -9.5t-22 9.5t-5 22.5l111 635l-313 690q-4 8 -4 19zM705 1485q-15 15 2 33l245 241q25 25 45 2t-6 -45 l-254 -229q-18 -16 -32 -2z" />
<glyph unicode="&#xde;" horiz-adv-x="1110" d="M188 16l236 1346q3 15 14 24t25 9t21.5 -10t4.5 -23l-45 -260h400q142 0 227.5 -79.5t85.5 -229.5q0 -198 -130.5 -329.5t-317.5 -131.5h-400l-55 -316q-3 -14 -14.5 -23t-24.5 -9q-14 0 -22 9.5t-5 22.5zM319 389h377q175 0 284.5 111.5t109.5 283.5q0 127 -73.5 193.5 t-205.5 66.5h-377z" />
<glyph unicode="&#xdf;" horiz-adv-x="1060" d="M-186 -389q0 12 9.5 21.5t22.5 9.5q145 0 228.5 84.5t109.5 228.5l164 922h-115q-22 0 -22 22q0 12 10 21.5t21 9.5h116l25 137q59 336 356 336q103 0 168.5 -56.5t65.5 -148.5q0 -65 -23 -116t-59.5 -82.5t-80.5 -57t-88 -47.5t-80.5 -46t-59.5 -60.5t-23 -83.5 q0 -49 28 -87t72 -62.5t98 -45.5t108 -42.5t98 -47t72 -66t28 -92.5q0 -141 -106.5 -215t-280.5 -74q-117 0 -200 42t-120 96q-8 12 -8 22q0 12 9 20.5t20 8.5q16 0 24 -12q90 -123 285 -123q87 0 155.5 21.5t113 73t44.5 128.5q0 45 -27.5 80t-72 58t-98 43t-106.5 42.5 t-97.5 49.5t-72 70.5t-27.5 100.5q0 58 23 101.5t59 71t80 51t88.5 46.5t80.5 51t59 73t23 104q0 71 -48 114.5t-132 43.5q-130 0 -197.5 -74.5t-91.5 -208.5l-200 -1118q-13 -73 -42 -134.5t-76 -114t-121 -82.5t-167 -30q-9 0 -15.5 7t-6.5 16z" />
<glyph unicode="&#xe0;" horiz-adv-x="962" d="M125 319q0 125 34 238.5t98.5 203.5t166.5 143.5t227 53.5q81 0 155 -28t122 -82l10 67q7 31 35 31q12 0 19 -7.5t7 -18.5q0 -5 -2 -15l-161 -889q-6 -30 -35 -30q-23 0 -23 24q0 7 2 17l41 200q-20 -48 -52 -90.5t-77 -80t-107.5 -59.5t-133.5 -22q-166 0 -246 92 t-80 252zM188 319q0 -136 66 -213t205 -77q155 0 266 137.5t145 341.5l48 274q-90 123 -267 123q-201 0 -332 -162.5t-131 -423.5zM563 1346q20 22 45 -3l246 -241q18 -18 2 -33q-14 -14 -33 2l-254 229q-26 23 -6 46z" />
<glyph unicode="&#xe1;" horiz-adv-x="962" d="M125 319q0 125 34 238.5t98.5 203.5t166.5 143.5t227 53.5q81 0 155 -28t122 -82l10 67q7 31 35 31q12 0 19 -7.5t7 -18.5q0 -5 -2 -15l-161 -889q-6 -30 -35 -30q-23 0 -23 24q0 7 2 17l41 200q-20 -48 -52 -90.5t-77 -80t-107.5 -59.5t-133.5 -22q-166 0 -246 92 t-80 252zM188 319q0 -136 66 -213t205 -77q155 0 266 137.5t145 341.5l48 274q-90 123 -267 123q-201 0 -332 -162.5t-131 -423.5zM629 1069q-15 15 2 33l246 241q25 25 45 3q20 -23 -7 -46l-253 -229q-19 -16 -33 -2z" />
<glyph unicode="&#xe2;" horiz-adv-x="964" d="M127 319q0 125 34 238.5t98.5 203.5t166.5 143.5t227 53.5q81 0 155 -28t122 -82l10 67q7 31 35 31q12 0 19 -7.5t7 -18.5q0 -5 -2 -15l-161 -889q-6 -30 -35 -30q-23 0 -23 24q0 7 2 17l41 200q-20 -48 -52 -90.5t-77 -80t-107.5 -59.5t-133.5 -22q-166 0 -246 92 t-80 252zM190 319q0 -136 66 -213t205 -77q155 0 266 137.5t145 341.5l48 274q-90 123 -267 123q-201 0 -332 -162.5t-131 -423.5zM479 1118q0 13 13 23l237 180q13 10 23 10t20 -10l170 -182q8 -8 8 -21q0 -10 -8 -18t-18 -8q-13 0 -25 12l-151 168l-224 -172 q-12 -8 -20 -8q-9 0 -17 8t-8 18z" />
<glyph unicode="&#xe3;" horiz-adv-x="962" d="M125 319q0 125 34 238.5t98.5 203.5t166.5 143.5t227 53.5q81 0 155 -28t122 -82l10 67q7 31 35 31q12 0 19 -7.5t7 -18.5q0 -5 -2 -15l-161 -889q-6 -30 -35 -30q-23 0 -23 24q0 7 2 17l41 200q-20 -48 -52 -90.5t-77 -80t-107.5 -59.5t-133.5 -22q-166 0 -246 92 t-80 252zM188 319q0 -136 66 -213t205 -77q155 0 266 137.5t145 341.5l48 274q-90 123 -267 123q-201 0 -332 -162.5t-131 -423.5zM420 1114q0 9 6 21q20 40 63.5 71t100.5 31q49 0 93.5 -22t86 -44t82.5 -22q31 0 54.5 13t35 27t27.5 40q10 16 26 16q9 0 17 -6.5t8 -15.5 t-6 -21q-59 -106 -168 -106q-49 0 -92.5 22t-84 44t-81.5 22q-71 0 -119 -78q-8 -14 -25 -14q-9 0 -16.5 6.5t-7.5 15.5z" />
<glyph unicode="&#xe4;" horiz-adv-x="966" d="M127 319q0 125 34 238.5t98.5 203.5t166.5 143.5t227 53.5q81 0 155 -28t122 -82l10 67q7 31 35 31q12 0 19 -7.5t7 -18.5q0 -5 -2 -15l-161 -889q-6 -30 -35 -30q-23 0 -23 24q0 7 2 17l41 200q-20 -48 -52 -90.5t-77 -80t-107.5 -59.5t-133.5 -22q-166 0 -246 92 t-80 252zM190 319q0 -136 66 -213t205 -77q155 0 266 137.5t145 341.5l48 274q-90 123 -267 123q-201 0 -332 -162.5t-131 -423.5zM502 1145q0 63 55 63q37 0 37 -30q0 -28 -13.5 -46t-41.5 -18q-37 0 -37 31zM829 1145q0 28 14 45.5t42 17.5q37 0 37 -30q0 -28 -14 -46 t-42 -18q-37 0 -37 31z" />
<glyph unicode="&#xe5;" horiz-adv-x="962" d="M125 319q0 125 34 238.5t98.5 203.5t166.5 143.5t227 53.5q81 0 155 -28t122 -82l10 67q7 31 35 31q12 0 19 -7.5t7 -18.5q0 -5 -2 -15l-161 -889q-6 -30 -35 -30q-23 0 -23 24q0 7 2 17l41 200q-20 -48 -52 -90.5t-77 -80t-107.5 -59.5t-133.5 -22q-166 0 -246 92 t-80 252zM188 319q0 -136 66 -213t205 -77q155 0 266 137.5t145 341.5l48 274q-90 123 -267 123q-201 0 -332 -162.5t-131 -423.5zM510 1188q0 107 65 174.5t187 67.5q91 0 135.5 -42t44.5 -118q0 -107 -65 -174.5t-187 -67.5q-91 0 -135.5 42t-44.5 118zM563 1190 q0 -59 32.5 -88t102.5 -29q95 0 143 52.5t48 142.5q0 59 -32.5 87.5t-102.5 28.5q-95 0 -143 -52t-48 -142z" />
<glyph unicode="&#xe6;" horiz-adv-x="1634" d="M125 319q0 124 38 238.5t106.5 204t173.5 143t231 53.5q83 0 156.5 -24.5t111 -50t78.5 -62.5q137 137 348 137q133 0 207 -62t74 -151q0 -60 -22.5 -107.5t-59 -79.5t-95 -55t-116.5 -36t-139 -20t-147 -9t-155 -2q-10 -51 -10 -121q0 -50 7 -90t26 -78.5t50.5 -63.5 t83.5 -40.5t122 -15.5q165 0 295 102q9 6 16 6q11 0 19 -8t8 -18q0 -14 -16 -27q-134 -109 -330 -109q-163 0 -247.5 75.5t-90.5 232.5q-39 -121 -146.5 -213.5t-250.5 -92.5q-166 0 -246 92t-80 252zM188 319q0 -136 66 -213t205 -77q145 0 251 121t146 309q31 199 127 323 q-123 123 -309 123q-98 0 -187 -42.5t-155 -118t-105 -186t-39 -239.5zM922 489q80 0 137 1.5t131.5 7t127 15t108 28t89 44t55 63.5t21.5 87q0 75 -63 122.5t-170 47.5q-166 0 -282.5 -103t-153.5 -313z" />
<glyph unicode="&#xe7;" horiz-adv-x="901" d="M147 317q0 297 140.5 469t382.5 172q57 0 105 -12.5t76.5 -28t50.5 -37.5t30 -34.5t14 -24.5q4 -8 4 -18q0 -12 -8.5 -19.5t-19.5 -7.5q-16 0 -23 12q-13 21 -26 36.5t-40.5 36.5t-71.5 32.5t-102 11.5q-141 0 -243 -77.5t-152.5 -208.5t-50.5 -300q0 -151 73 -221.5 t218 -70.5q134 0 284 102q9 6 19 6q11 0 19 -7t8 -19q0 -16 -17 -27q-155 -109 -321 -109q-25 0 -35 2l-27 -102q29 8 62 8q68 0 106.5 -34.5t38.5 -98.5q0 -94 -52.5 -150.5t-162.5 -56.5q-77 0 -117 31q-12 9 -12 20q0 9 6 15t14 6t17 -6q44 -27 92 -27q82 0 124 43 t42 121q0 100 -103 100q-24 0 -49 -6t-30 -6q-9 0 -14.5 8.5t-2.5 18.5l27 118q-133 18 -203 102.5t-70 237.5z" />
<glyph unicode="&#xe8;" horiz-adv-x="942" d="M150 313q0 91 16 178t55 173t97.5 150t150.5 104t207 40q133 0 206.5 -62t73.5 -151q0 -60 -22.5 -107.5t-58.5 -79.5t-94.5 -55t-116 -36t-138 -20t-146.5 -9t-155 -2q-12 -44 -12 -121q0 -50 7 -90t26 -78.5t50.5 -63.5t83.5 -40.5t122 -15.5q165 0 295 102q9 6 16 6 q11 0 19 -8t8 -18q0 -13 -17 -27q-134 -109 -329 -109q-344 0 -344 340zM231 489q80 0 136.5 1.5t131.5 7t127 15t107.5 28t89 44t55 63.5t21.5 87q0 75 -63 122.5t-170 47.5q-166 0 -282 -103t-153 -313zM539 1346q20 22 45 -3l245 -241q17 -18 2 -33q-14 -14 -32 2 l-254 229q-26 23 -6 46z" />
<glyph unicode="&#xe9;" horiz-adv-x="942" d="M150 313q0 91 16 178t55 173t97.5 150t150.5 104t207 40q133 0 206.5 -62t73.5 -151q0 -60 -22.5 -107.5t-58.5 -79.5t-94.5 -55t-116 -36t-138 -20t-146.5 -9t-155 -2q-12 -44 -12 -121q0 -50 7 -90t26 -78.5t50.5 -63.5t83.5 -40.5t122 -15.5q165 0 295 102q9 6 16 6 q11 0 19 -8t8 -18q0 -13 -17 -27q-134 -109 -329 -109q-344 0 -344 340zM231 489q80 0 136.5 1.5t131.5 7t127 15t107.5 28t89 44t55 63.5t21.5 87q0 75 -63 122.5t-170 47.5q-166 0 -282 -103t-153 -313zM561 1069q-15 15 2 33l246 241q25 25 45 3q20 -23 -6 -46l-254 -229 q-19 -16 -33 -2z" />
<glyph unicode="&#xea;" horiz-adv-x="942" d="M150 313q0 91 16 178t55 173t97.5 150t150.5 104t207 40q133 0 206.5 -62t73.5 -151q0 -60 -22.5 -107.5t-58.5 -79.5t-94.5 -55t-116 -36t-138 -20t-146.5 -9t-155 -2q-12 -44 -12 -121q0 -50 7 -90t26 -78.5t50.5 -63.5t83.5 -40.5t122 -15.5q165 0 295 102q9 6 16 6 q11 0 19 -8t8 -18q0 -13 -17 -27q-134 -109 -329 -109q-344 0 -344 340zM231 489q80 0 136.5 1.5t131.5 7t127 15t107.5 28t89 44t55 63.5t21.5 87q0 75 -63 122.5t-170 47.5q-166 0 -282 -103t-153 -313zM469 1118q0 14 12 23l238 180q13 10 22 10q11 0 21 -10l170 -182 q8 -8 8 -21q0 -10 -8 -18t-19 -8q-12 0 -24 12l-152 168l-223 -172q-12 -8 -20 -8q-9 0 -17 8t-8 18z" />
<glyph unicode="&#xeb;" horiz-adv-x="942" d="M150 313q0 91 16 178t55 173t97.5 150t150.5 104t207 40q133 0 206.5 -62t73.5 -151q0 -60 -22.5 -107.5t-58.5 -79.5t-94.5 -55t-116 -36t-138 -20t-146.5 -9t-155 -2q-12 -44 -12 -121q0 -50 7 -90t26 -78.5t50.5 -63.5t83.5 -40.5t122 -15.5q165 0 295 102q9 6 16 6 q11 0 19 -8t8 -18q0 -13 -17 -27q-134 -109 -329 -109q-344 0 -344 340zM231 489q80 0 136.5 1.5t131.5 7t127 15t107.5 28t89 44t55 63.5t21.5 87q0 75 -63 122.5t-170 47.5q-166 0 -282 -103t-153 -313zM494 1145q0 63 55 63q37 0 37 -30q0 -28 -14 -46t-42 -18 q-36 0 -36 31zM821 1145q0 28 14 45.5t42 17.5q36 0 36 -30q0 -28 -13.5 -46t-41.5 -18q-37 0 -37 31z" />
<glyph unicode="&#xec;" horiz-adv-x="358" d="M156 14l159 901q1 12 13 21.5t24 9.5t19.5 -9.5t5.5 -21.5l-160 -901q-1 -12 -12 -21t-23 -9t-20 9t-6 21zM160 1346q20 22 45 -3l246 -241q17 -18 2 -33q-14 -14 -33 2l-254 229q-26 23 -6 46z" />
<glyph unicode="&#xed;" horiz-adv-x="358" d="M156 14l159 901q1 12 13 21.5t24 9.5t19.5 -9.5t5.5 -21.5l-160 -901q-1 -12 -12 -21t-23 -9t-20 9t-6 21zM307 1069q-15 15 2 33l246 241q25 25 45 3q20 -23 -6 -46l-254 -229q-19 -16 -33 -2z" />
<glyph unicode="&#xee;" horiz-adv-x="358" d="M141 1118q0 13 13 23l237 180q13 10 23 10t20 -10l170 -182q8 -8 8 -21q0 -10 -8 -18t-18 -8q-13 0 -25 12l-151 168l-224 -172q-12 -8 -20 -8q-9 0 -17 8t-8 18zM156 14l159 901q1 12 13 21.5t24 9.5t19.5 -9.5t5.5 -21.5l-160 -901q-1 -12 -12 -21t-23 -9t-20 9t-6 21z " />
<glyph unicode="&#xef;" horiz-adv-x="358" d="M156 14l159 901q1 12 13 21.5t24 9.5t19.5 -9.5t5.5 -21.5l-160 -901q-1 -12 -12 -21t-23 -9t-20 9t-6 21zM178 1145q0 63 55 63q37 0 37 -30q0 -28 -13.5 -46t-41.5 -18q-37 0 -37 31zM506 1145q0 63 55 63q37 0 37 -30q0 -28 -13.5 -46t-41.5 -18q-37 0 -37 31z" />
<glyph unicode="&#xf0;" d="M152 315q0 96 16.5 185t55 173.5t96.5 147t148 100t202 37.5q221 0 301 -167q-20 280 -127 419l-176 -102l-17 -4q-9 0 -14.5 6.5t-5.5 15.5q0 17 16 25l168 96q-69 93 -194 166q-11 5 -11 19q0 10 8 18t19 8q8 0 16 -4q122 -70 209 -178l137 80q9 6 19 6q9 0 15.5 -7 t6.5 -16q0 -12 -16 -22l-133 -78q135 -204 135 -532q0 -734 -530 -734q-167 0 -255.5 85t-88.5 257zM213 317q0 -290 293 -290q199 0 323.5 148t124.5 411q0 319 -292 319q-92 0 -168 -32t-127.5 -87.5t-86.5 -131t-51 -160t-16 -177.5z" />
<glyph unicode="&#xf1;" horiz-adv-x="1015" d="M145 14l160 901q2 12 12 21.5t25 9.5q12 0 19.5 -9.5t5.5 -21.5l-27 -153q33 73 128.5 134.5t227.5 61.5q159 0 234.5 -71.5t75.5 -188.5q0 -50 -9 -102l-102 -582q-1 -12 -12 -21t-23 -9q-14 0 -21 8.5t-5 21.5l102 582q8 49 8 92q0 217 -260 217q-80 0 -148 -28.5 t-113.5 -76.5t-75 -105.5t-40.5 -119.5l-100 -561q-2 -12 -12 -21t-23 -9t-21.5 8.5t-5.5 21.5zM424 1114q0 9 6 21q20 40 63.5 71t100.5 31q49 0 93.5 -22t86 -44t82.5 -22q31 0 54.5 13t35 27t27.5 40q10 16 26 16q9 0 17 -6.5t8 -15.5t-6 -21q-59 -106 -168 -106 q-49 0 -92.5 22t-84 44t-81.5 22q-71 0 -119 -78q-8 -14 -24 -14q-9 0 -17 6.5t-8 15.5z" />
<glyph unicode="&#xf2;" d="M147 317q0 95 17 183.5t56 173t97.5 146.5t149 100t201.5 38q167 0 256.5 -86t89.5 -258q0 -95 -16.5 -183.5t-55.5 -173t-97.5 -146.5t-148.5 -100t-202 -38q-167 0 -257 86t-90 258zM213 319q0 -292 291 -292q114 0 201.5 48.5t139 132t77.5 185.5t26 219 q0 293 -291 293q-92 0 -167 -32t-125.5 -87t-85.5 -130.5t-50.5 -159.5t-15.5 -177zM524 1346q20 22 45 -3l246 -241q17 -18 2 -33q-14 -14 -33 2l-254 229q-26 23 -6 46z" />
<glyph unicode="&#xf3;" d="M147 317q0 95 17 183.5t56 173t97.5 146.5t149 100t201.5 38q167 0 256.5 -86t89.5 -258q0 -95 -16.5 -183.5t-55.5 -173t-97.5 -146.5t-148.5 -100t-202 -38q-167 0 -257 86t-90 258zM213 319q0 -292 291 -292q114 0 201.5 48.5t139 132t77.5 185.5t26 219 q0 293 -291 293q-92 0 -167 -32t-125.5 -87t-85.5 -130.5t-50.5 -159.5t-15.5 -177zM612 1069q-16 15 2 33l246 241q25 25 45 3q20 -23 -6 -46l-254 -229q-19 -16 -33 -2z" />
<glyph unicode="&#xf4;" d="M147 317q0 95 17 183.5t56 173t97.5 146.5t149 100t201.5 38q167 0 256.5 -86t89.5 -258q0 -95 -16.5 -183.5t-55.5 -173t-97.5 -146.5t-148.5 -100t-202 -38q-167 0 -257 86t-90 258zM213 319q0 -292 291 -292q114 0 201.5 48.5t139 132t77.5 185.5t26 219 q0 293 -291 293q-92 0 -167 -32t-125.5 -87t-85.5 -130.5t-50.5 -159.5t-15.5 -177zM485 1118q0 13 13 23l237 180q13 10 23 10t20 -10l170 -182q8 -8 8 -21q0 -10 -8 -18t-18 -8q-13 0 -25 12l-151 168l-224 -172q-12 -8 -20 -8q-9 0 -17 8t-8 18z" />
<glyph unicode="&#xf5;" d="M147 317q0 95 17 183.5t56 173t97.5 146.5t149 100t201.5 38q167 0 256.5 -86t89.5 -258q0 -95 -16.5 -183.5t-55.5 -173t-97.5 -146.5t-148.5 -100t-202 -38q-167 0 -257 86t-90 258zM213 319q0 -292 291 -292q114 0 201.5 48.5t139 132t77.5 185.5t26 219 q0 293 -291 293q-92 0 -167 -32t-125.5 -87t-85.5 -130.5t-50.5 -159.5t-15.5 -177zM406 1114q0 9 6 21q21 40 63.5 71t99.5 31q49 0 94 -22t86.5 -44t82.5 -22q31 0 54.5 13t34.5 27t27 40q10 16 27 16q9 0 17 -6.5t8 -15.5q0 -7 -7 -21q-59 -106 -168 -106q-49 0 -92.5 22 t-84 44t-81.5 22q-42 0 -69 -20.5t-49 -57.5q-8 -14 -25 -14q-9 0 -16.5 6.5t-7.5 15.5z" />
<glyph unicode="&#xf6;" d="M147 317q0 95 17 183.5t56 173t97.5 146.5t149 100t201.5 38q167 0 256.5 -86t89.5 -258q0 -95 -16.5 -183.5t-55.5 -173t-97.5 -146.5t-148.5 -100t-202 -38q-167 0 -257 86t-90 258zM213 319q0 -292 291 -292q114 0 201.5 48.5t139 132t77.5 185.5t26 219 q0 293 -291 293q-92 0 -167 -32t-125.5 -87t-85.5 -130.5t-50.5 -159.5t-15.5 -177zM506 1145q0 63 55 63q37 0 37 -30q0 -28 -13.5 -46t-41.5 -18q-37 0 -37 31zM834 1145q0 63 55 63q37 0 37 -30q0 -28 -14 -46t-42 -18q-36 0 -36 31z" />
<glyph unicode="&#xf7;" horiz-adv-x="929" d="M78 442q0 12 10 21.5t21 9.5h876q10 0 16.5 -6.5t6.5 -15.5q0 -12 -9.5 -21.5t-21.5 -9.5h-877q-9 0 -15.5 6.5t-6.5 15.5zM451 184q0 22 17 40t40 18q17 0 28 -11t11 -26q0 -22 -17.5 -40t-40.5 -18q-17 0 -27.5 11t-10.5 26zM539 686q0 22 17 39.5t40 17.5 q17 0 28 -10.5t11 -25.5q0 -22 -17 -40t-40 -18q-17 0 -28 11t-11 26z" />
<glyph unicode="&#xf8;" d="M47 14q0 14 10 21l121 108q-31 73 -31 174q0 95 17 183.5t56 173t97.5 146.5t149 100t201.5 38q204 0 288 -124l113 100q8 8 21 8q8 0 16 -7t8 -17q0 -13 -12 -23l-121 -107q33 -70 33 -174q0 -95 -16.5 -183.5t-55.5 -173t-97.5 -146.5t-148.5 -100t-202 -38 q-206 0 -289 123l-113 -98q-8 -8 -20 -8q-10 0 -17.5 7.5t-7.5 16.5zM213 319q0 -76 18 -131l676 603q-66 114 -250 114q-92 0 -167 -32t-125.5 -87t-85.5 -130.5t-50.5 -159.5t-15.5 -177zM252 139q67 -112 252 -112q114 0 201.5 48.5t139 132t77.5 185.5t26 219 q0 74 -18 129z" />
<glyph unicode="&#xf9;" horiz-adv-x="995" d="M174 233q0 43 10 105l101 577q7 31 37 31q12 0 19 -9.5t5 -21.5l-102 -577q-8 -44 -8 -94q0 -107 59.5 -162t208.5 -55q94 0 162 24t108.5 69.5t62 97t33.5 120.5l103 577q7 31 35 31q12 0 20 -9.5t6 -21.5l-102 -577q-11 -63 -27 -111.5t-48.5 -98.5t-78 -82t-118 -52.5 t-166.5 -20.5q-320 0 -320 260zM502 1346q20 22 45 -3l246 -241q17 -18 2 -33q-14 -14 -33 2l-254 229q-26 23 -6 46z" />
<glyph unicode="&#xfa;" horiz-adv-x="995" d="M174 233q0 43 10 105l101 577q7 31 37 31q12 0 19 -9.5t5 -21.5l-102 -577q-8 -44 -8 -94q0 -107 59.5 -162t208.5 -55q94 0 162 24t108.5 69.5t62 97t33.5 120.5l103 577q7 31 35 31q12 0 20 -9.5t6 -21.5l-102 -577q-11 -63 -27 -111.5t-48.5 -98.5t-78 -82t-118 -52.5 t-166.5 -20.5q-320 0 -320 260zM608 1069q-16 15 2 33l246 241q25 25 45 3q20 -23 -6 -46l-254 -229q-19 -16 -33 -2z" />
<glyph unicode="&#xfb;" horiz-adv-x="995" d="M174 233q0 43 10 105l101 577q7 31 37 31q12 0 19 -9.5t5 -21.5l-102 -577q-8 -44 -8 -94q0 -107 59.5 -162t208.5 -55q94 0 162 24t108.5 69.5t62 97t33.5 120.5l103 577q7 31 35 31q12 0 20 -9.5t6 -21.5l-102 -577q-11 -63 -27 -111.5t-48.5 -98.5t-78 -82t-118 -52.5 t-166.5 -20.5q-320 0 -320 260zM471 1118q0 14 12 23l238 180q13 10 22 10q11 0 21 -10l170 -182q8 -8 8 -21q0 -10 -8 -18t-19 -8q-12 0 -24 12l-152 168l-223 -172q-12 -8 -20 -8q-9 0 -17 8t-8 18z" />
<glyph unicode="&#xfc;" horiz-adv-x="995" d="M174 233q0 43 10 105l101 577q7 31 37 31q12 0 19 -9.5t5 -21.5l-102 -577q-8 -44 -8 -94q0 -107 59.5 -162t208.5 -55q94 0 162 24t108.5 69.5t62 97t33.5 120.5l103 577q7 31 35 31q12 0 20 -9.5t6 -21.5l-102 -577q-11 -63 -27 -111.5t-48.5 -98.5t-78 -82t-118 -52.5 t-166.5 -20.5q-320 0 -320 260zM496 1145q0 63 55 63q37 0 37 -30q0 -28 -14 -46t-42 -18q-36 0 -36 31zM823 1145q0 28 14 45.5t42 17.5q36 0 36 -30q0 -28 -13.5 -46t-41.5 -18q-37 0 -37 31z" />
<glyph unicode="&#xfd;" horiz-adv-x="991" d="M135 -231q0 52 24 96.5t51.5 72t95 61t105 48t131.5 47.5q3 1 5 2q-40 -4 -74 -4q-124 0 -202 67.5t-78 196.5q0 43 10 105l82 454q7 31 37 31q12 0 19 -9.5t5 -21.5l-82 -454q-8 -45 -8 -94q0 -103 60.5 -160t207.5 -57q72 0 132 20.5t99 52.5t68.5 75.5t44.5 84 t23 82.5l82 450q7 31 35 31q12 0 20 -9.5t6 -21.5l-168 -940q-24 -133 -94 -221.5t-168 -127t-223 -38.5q-117 0 -181.5 53.5t-64.5 127.5zM201 -219q0 -68 53 -103.5t137 -35.5q163 0 272 82.5t142 250.5l57 299q-32 -54 -86 -99t-114 -74.5t-126 -56t-125 -51.5 t-106.5 -53.5t-75.5 -68.5t-28 -90zM623 1069q-15 15 2 33l245 241q25 25 45 3q20 -23 -6 -46l-254 -229q-18 -16 -32 -2z" />
<glyph unicode="&#xfe;" horiz-adv-x="1044" d="M76 -379l319 1806q1 12 13 21.5t24 9.5t19.5 -9.5t5.5 -21.5l-119 -671q120 202 375 202q166 0 256 -88.5t90 -255.5q0 -95 -16.5 -183.5t-55.5 -173t-97.5 -146.5t-148.5 -100t-202 -38q-55 0 -101 12t-75.5 32t-52.5 43.5t-35.5 47t-20.5 43.5t-10 32l-2 12l-105 -576 q-2 -12 -12 -21.5t-23 -9.5q-14 0 -21.5 10t-4.5 23zM272 319q0 -147 74.5 -219.5t202.5 -72.5q213 0 328.5 160t115.5 425q0 150 -77.5 221.5t-213.5 71.5q-199 0 -314.5 -160t-115.5 -426z" />
<glyph unicode="&#xff;" horiz-adv-x="991" d="M135 -231q0 52 24 96.5t51.5 72t95 61t105 48t131.5 47.5q3 1 5 2q-40 -4 -74 -4q-124 0 -202 67.5t-78 196.5q0 43 10 105l82 454q7 31 37 31q12 0 19 -9.5t5 -21.5l-82 -454q-8 -45 -8 -94q0 -103 60.5 -160t207.5 -57q72 0 132 20.5t99 52.5t68.5 75.5t44.5 84 t23 82.5l82 450q7 31 35 31q12 0 20 -9.5t6 -21.5l-168 -940q-24 -133 -94 -221.5t-168 -127t-223 -38.5q-117 0 -181.5 53.5t-64.5 127.5zM201 -219q0 -68 53 -103.5t137 -35.5q163 0 272 82.5t142 250.5l57 299q-32 -54 -86 -99t-114 -74.5t-126 -56t-125 -51.5 t-106.5 -53.5t-75.5 -68.5t-28 -90zM498 1145q0 63 55 63q37 0 37 -30q0 -28 -13.5 -46t-41.5 -18q-37 0 -37 31zM825 1145q0 28 14 45.5t42 17.5q37 0 37 -30q0 -28 -14 -46t-42 -18q-37 0 -37 31z" />
<glyph unicode="&#x152;" horiz-adv-x="1929" d="M193 483q0 148 28 282.5t89.5 252.5t150 204t217.5 135.5t285 49.5q202 0 335 -82l5 21q3 14 14 23t24 9h695q10 0 17 -7t7 -17q0 -13 -10.5 -23t-24.5 -10h-661l-104 -598h516q22 0 22 -25q0 -13 -9.5 -22.5t-23.5 -9.5h-516l-108 -609h686q11 0 17.5 -6.5t6.5 -17.5 q0 -13 -10 -23t-24 -10h-719q-14 0 -22 10t-5 23l4 20q-164 -82 -352 -82q-255 0 -392.5 129t-137.5 383zM258 485q0 -456 469 -456q211 0 360 94l199 1132q-118 95 -328 95q-145 0 -263.5 -47.5t-198.5 -129t-134.5 -192.5t-79 -235t-24.5 -261z" />
<glyph unicode="&#x153;" horiz-adv-x="1716" d="M147 317q0 95 17 183.5t56 173t97.5 146.5t149 100t201.5 38q304 0 338 -276q62 127 172 201.5t272 74.5q133 0 207 -62t74 -151q0 -60 -22.5 -107.5t-58.5 -79.5t-94.5 -55t-116.5 -36t-138.5 -20t-146.5 -9t-155 -2q-12 -53 -12 -121q0 -50 7 -90t26 -78.5t50.5 -63.5 t83.5 -40.5t122 -15.5q165 0 295 102q9 6 16 6q11 0 19 -8t8 -18q0 -13 -17 -27q-134 -109 -329 -109q-152 0 -235.5 66t-100.5 203q-61 -125 -170 -197t-268 -72q-167 0 -257 86t-90 258zM213 319q0 -292 291 -292q114 0 201.5 48.5t139 132t77.5 185.5t26 219 q0 293 -291 293q-92 0 -167 -32t-125.5 -87t-85.5 -130.5t-50.5 -159.5t-15.5 -177zM1006 489q80 0 136.5 1.5t131.5 7t127 15t107 28t88.5 44t55 63.5t21.5 87q0 75 -63 122.5t-170 47.5q-166 0 -281.5 -102.5t-152.5 -313.5z" />
<glyph unicode="&#x178;" horiz-adv-x="1028" d="M279 1360q0 14 10.5 24.5t23.5 10.5q24 0 33 -23l291 -659l532 665q14 17 31 17q13 0 23 -10.5t10 -22.5q0 -14 -10 -27l-559 -684l-113 -635q-1 -13 -13 -22.5t-26 -9.5t-22 9.5t-5 22.5l111 635l-313 690q-4 8 -4 19zM592 1548q0 28 13.5 46t41.5 18q37 0 37 -31 q0 -63 -55 -63q-37 0 -37 30zM920 1548q0 28 13.5 46t41.5 18q37 0 37 -31q0 -28 -14 -45.5t-42 -17.5q-36 0 -36 30z" />
<glyph unicode="&#x2c6;" horiz-adv-x="684" d="M303 1118q0 14 12 23l238 180q13 10 22 10q11 0 21 -10l170 -182q8 -8 8 -21q0 -10 -8 -18t-18 -8q-13 0 -25 12l-152 168l-223 -172q-12 -8 -20 -8q-9 0 -17 8t-8 18z" />
<glyph unicode="&#x2dc;" horiz-adv-x="774" d="M293 1114q0 9 6 21q20 40 63.5 71t100.5 31q49 0 93.5 -22t86 -44t82.5 -22q31 0 54.5 13t35 27t27.5 40q10 16 26 16q9 0 17 -6.5t8 -15.5t-6 -21q-59 -106 -168 -106q-49 0 -92.5 22t-84 44t-81.5 22q-71 0 -119 -78q-8 -14 -25 -14q-9 0 -16.5 6.5t-7.5 15.5z" />
<glyph unicode="&#x2000;" horiz-adv-x="920" />
<glyph unicode="&#x2001;" horiz-adv-x="1841" />
<glyph unicode="&#x2002;" horiz-adv-x="920" />
<glyph unicode="&#x2003;" horiz-adv-x="1841" />
<glyph unicode="&#x2004;" horiz-adv-x="613" />
<glyph unicode="&#x2005;" horiz-adv-x="460" />
<glyph unicode="&#x2006;" horiz-adv-x="306" />
<glyph unicode="&#x2007;" horiz-adv-x="306" />
<glyph unicode="&#x2008;" horiz-adv-x="230" />
<glyph unicode="&#x2009;" horiz-adv-x="368" />
<glyph unicode="&#x200a;" horiz-adv-x="102" />
<glyph unicode="&#x2010;" horiz-adv-x="577" d="M164 512q0 12 9.5 21.5t21.5 9.5h374q9 0 16 -7t7 -16q0 -12 -9.5 -21.5t-21.5 -9.5h-375q-9 0 -15.5 7t-6.5 16z" />
<glyph unicode="&#x2011;" horiz-adv-x="577" d="M164 512q0 12 9.5 21.5t21.5 9.5h374q9 0 16 -7t7 -16q0 -12 -9.5 -21.5t-21.5 -9.5h-375q-9 0 -15.5 7t-6.5 16z" />
<glyph unicode="&#x2012;" horiz-adv-x="577" d="M164 512q0 12 9.5 21.5t21.5 9.5h374q9 0 16 -7t7 -16q0 -12 -9.5 -21.5t-21.5 -9.5h-375q-9 0 -15.5 7t-6.5 16z" />
<glyph unicode="&#x2013;" horiz-adv-x="1196" d="M313 573q0 12 10 21.5t21 9.5h721q9 0 15.5 -6.5t6.5 -15.5q0 -12 -9.5 -21.5t-20.5 -9.5h-721q-9 0 -16 6.5t-7 15.5z" />
<glyph unicode="&#x2014;" horiz-adv-x="1880" d="M313 573q0 12 10 21.5t21 9.5h1405q10 0 16.5 -6.5t6.5 -15.5q0 -12 -9.5 -21.5t-21.5 -9.5h-1405q-9 0 -16 6.5t-7 15.5z" />
<glyph unicode="&#x2018;" horiz-adv-x="280" d="M295 1112q0 76 34.5 149t80.5 123q11 11 20 11q8 0 13.5 -5t5.5 -12q0 -6 -7 -16q-69 -89 -69 -141q0 -21 9 -47.5t9 -38.5q0 -29 -15.5 -44.5t-41.5 -15.5q-39 0 -39 37z" />
<glyph unicode="&#x2019;" horiz-adv-x="280" d="M276 1092q0 6 7 16q69 89 69 141q0 21 -9 47.5t-9 38.5q0 29 16 44.5t41 15.5q39 0 39 -37q0 -76 -34.5 -149.5t-80.5 -123.5q-10 -10 -20 -10q-8 0 -13.5 5t-5.5 12z" />
<glyph unicode="&#x201a;" horiz-adv-x="288" d="M43 -223q0 7 6 16q70 91 70 141q0 21 -9.5 47.5t-9.5 38.5q0 28 16 44t42 16q39 0 39 -37q0 -76 -34.5 -149t-80.5 -123q-11 -11 -21 -11q-18 0 -18 17z" />
<glyph unicode="&#x201c;" horiz-adv-x="479" d="M295 1112q0 76 34.5 149t80.5 123q11 11 20 11q8 0 13.5 -5t5.5 -12q0 -6 -7 -16q-69 -89 -69 -141q0 -21 9 -47.5t9 -38.5q0 -29 -15.5 -44.5t-41.5 -15.5q-39 0 -39 37zM487 1112q0 76 34.5 149t80.5 123q11 11 21 11q18 0 18 -17q0 -7 -6 -16q-70 -91 -70 -141 q0 -21 9.5 -47.5t9.5 -38.5q0 -28 -16 -44t-42 -16q-39 0 -39 37z" />
<glyph unicode="&#x201d;" horiz-adv-x="479" d="M276 1092q0 6 7 16q69 89 69 141q0 21 -9 47.5t-9 38.5q0 29 16 44.5t41 15.5q39 0 39 -37q0 -76 -34.5 -149.5t-80.5 -123.5q-10 -10 -20 -10q-8 0 -13.5 5t-5.5 12zM469 1092q0 7 6 16q70 91 70 141q0 21 -9.5 47.5t-9.5 38.5q0 28 16 44t42 16q39 0 39 -37 q0 -76 -34.5 -149.5t-80.5 -123.5q-10 -10 -21 -10q-18 0 -18 17z" />
<glyph unicode="&#x201e;" horiz-adv-x="487" d="M49 -223q0 7 6 16q70 91 70 141q0 21 -9.5 47.5t-9.5 38.5q0 28 16 44t42 16q39 0 39 -37q0 -76 -34.5 -149t-80.5 -123q-11 -11 -20 -11q-8 0 -13.5 5t-5.5 12zM242 -223q0 7 6 16q69 89 69 141q0 21 -9 47.5t-9 38.5q0 28 15.5 44t41.5 16q39 0 39 -37q0 -76 -34 -149 t-80 -123q-11 -11 -21 -11q-18 0 -18 17z" />
<glyph unicode="&#x2022;" horiz-adv-x="856" d="M270 571q0 279 267 279q266 0 266 -279q0 -133 -68.5 -199.5t-197.5 -66.5q-130 0 -198.5 66.5t-68.5 199.5z" />
<glyph unicode="&#x202f;" horiz-adv-x="368" />
<glyph unicode="&#x2039;" horiz-adv-x="663" d="M199 430q0 11 10 21l430 421q9 9 20 9t20 -8.5t9 -20.5q0 -13 -8 -21l-416 -401l268 -395q7 -10 7 -19q0 -12 -8.5 -20t-20.5 -8q-14 0 -23 12l-282 414q-6 9 -6 16z" />
<glyph unicode="&#x203a;" horiz-adv-x="661" d="M125 16q0 13 8 21l416 401l-268 396q-7 10 -7 18q0 12 8.5 20.5t20.5 8.5q13 0 23 -13l282 -413q6 -9 6 -17q0 -10 -10 -20l-430 -422q-8 -8 -20 -8q-11 0 -20 8t-9 20z" />
<glyph unicode="&#x205f;" horiz-adv-x="460" />
<glyph unicode="&#x20ac;" horiz-adv-x="1273" d="M90 557q0 12 9.5 21.5t21.5 9.5h76q5 82 26 184h-69q-9 0 -16 7t-7 16q0 12 10.5 21t22.5 9h72q35 128 96 231.5t150.5 183.5t214 123.5t274.5 43.5q140 0 246.5 -58.5t168.5 -154.5q7 -10 7 -20q0 -12 -9.5 -21.5t-21.5 -9.5q-17 0 -27 16q-121 191 -374 191 q-135 0 -246 -39.5t-190.5 -112t-134.5 -165.5t-87 -208h432q9 0 16 -6.5t7 -15.5q0 -12 -10.5 -21.5t-22.5 -9.5h-436q-23 -99 -29 -184h432q10 0 16.5 -7t6.5 -16q0 -12 -9.5 -21t-21.5 -9h-426q-13 -250 107 -378t364 -128q118 0 231.5 48.5t206.5 141.5q12 12 25 12 q12 0 21.5 -9t9.5 -21t-11 -23q-96 -96 -222.5 -151.5t-264.5 -55.5q-256 0 -394 129t-138 383v52h-80q-9 0 -16 6.5t-7 15.5z" />
<glyph unicode="&#x2122;" horiz-adv-x="817" d="M274 1315q0 20 21 20h268q21 0 21 -20q0 -9 -6 -15t-15 -6h-112v-315q0 -9 -7 -16t-16 -7t-15.5 7t-6.5 16v315h-111q-9 0 -15 6t-6 15zM645 977v342q0 9 7 15.5t16 6.5q14 0 22 -16l113 -229l112 229q8 16 23 16q9 0 16 -6.5t7 -15.5v-342q0 -9 -6 -15t-15 -6 q-20 0 -20 21v270l-95 -190q-9 -17 -22 -17q-15 0 -23 17l-94 190v-270q0 -21 -20 -21q-9 0 -15 6t-6 15z" />
<glyph unicode="&#x25fc;" horiz-adv-x="942" d="M0 0v942h942v-942h-942z" />
</font>
</defs>
</svg>
