<?xml version="1.0" standalone="no"?>
<!DOCTYPE svg PUBLIC "-//W3C//DTD SVG 1.1//EN" "http://www.w3.org/Graphics/SVG/1.1/DTD/svg11.dtd" >
<svg xmlns="http://www.w3.org/2000/svg">
<metadata></metadata>
<defs>
<font id="bariolthin" horiz-adv-x="1040" >
<font-face units-per-em="2048" ascent="1612" descent="-436" />
<missing-glyph horiz-adv-x="512" />
<glyph unicode="&#x2e;&#x2e;&#x2e;" horiz-adv-x="1501" d="M109 23q0 40 34 40q35 0 35 -40q0 -39 -35 -39q-34 0 -34 39zM715 23q0 40 35 40q34 0 34 -40q0 -39 -34 -39q-35 0 -35 39zM1321 23q0 40 35 40t35 -40q0 -39 -35 -39t-35 39z" />
<glyph unicode="&#xfb01;" horiz-adv-x="917" d="M61 913q0 6 5.5 11.5t11.5 5.5h129v131q0 156 82.5 249t245.5 93q54 0 111.5 -14t92.5 -33q13 -6 13 -17q0 -5 -5 -10.5t-12 -5.5q-2 0 -22 8q-89 39 -178 39q-145 0 -218 -80t-73 -229v-131h491q7 0 13 -6t6 -13v-909q0 -7 -5.5 -12.5t-13.5 -5.5q-7 0 -12.5 5t-5.5 13 v895h-473v-895q0 -7 -5.5 -12.5t-13.5 -5.5q-7 0 -12.5 5t-5.5 13v895h-129q-6 0 -11.5 5t-5.5 11z" />
<glyph unicode="&#xfb02;" horiz-adv-x="968" d="M61 913q0 6 5.5 11.5t11.5 5.5h129v131q0 156 82.5 249t245.5 93q54 0 113.5 -14.5t90.5 -32.5q15 -9 15 -25v-1126q0 -95 27 -142t106 -47q16 0 16 -16t-16 -16q-97 0 -133.5 56.5t-36.5 164.5v692h-473v-895q0 -7 -5.5 -12.5t-13.5 -5.5q-7 0 -12.5 5t-5.5 13v895h-129 q-6 0 -11.5 5t-5.5 11zM244 930h473v399q-30 14 -83 27.5t-99 13.5q-145 0 -218 -80t-73 -229v-131z" />
<glyph unicode="&#xfb03;" horiz-adv-x="1439" d="M61 913q0 6 5.5 11.5t11.5 5.5h129v131q0 156 82.5 249t245.5 93q7 0 11.5 -5.5t4.5 -11.5q0 -16 -16 -16q-145 0 -218 -80t-73 -229v-131h485v131q0 156 82.5 249t245.5 93q54 0 112 -14t93 -33q12 -6 12 -17q0 -5 -5 -10.5t-12 -5.5q-2 0 -22 8q-89 39 -178 39 q-145 0 -218 -80t-73 -229v-131h491q7 0 13 -6t6 -13v-909q0 -7 -5.5 -12.5t-13.5 -5.5q-7 0 -12.5 5t-5.5 13v895h-473v-895q0 -8 -5 -13t-13 -5t-13.5 5.5t-5.5 12.5v895h-485v-895q0 -7 -5.5 -12.5t-13.5 -5.5q-7 0 -12.5 5t-5.5 13v895h-129q-6 0 -11.5 5t-5.5 11z" />
<glyph unicode="&#xfb04;" horiz-adv-x="1490" d="M61 913q0 6 5.5 11.5t11.5 5.5h129v131q0 156 82.5 249t245.5 93q7 0 11.5 -5.5t4.5 -11.5q0 -16 -16 -16q-145 0 -218 -80t-73 -229v-131h485v131q0 156 82.5 249t245.5 93q55 0 114.5 -14.5t90.5 -32.5q14 -8 14 -25v-1126q0 -95 27 -142t106 -47q16 0 16 -16t-16 -16 q-97 0 -133.5 56.5t-36.5 164.5v692h-473v-895q0 -8 -5 -13t-13 -5t-13.5 5.5t-5.5 12.5v895h-485v-895q0 -7 -5.5 -12.5t-13.5 -5.5q-7 0 -12.5 5t-5.5 13v895h-129q-6 0 -11.5 5t-5.5 11zM766 930h473v399q-30 14 -83 27.5t-99 13.5q-145 0 -218 -80t-73 -229v-131z" />
<glyph horiz-adv-x="2048" />
<glyph horiz-adv-x="2048" />
<glyph unicode="&#xd;" horiz-adv-x="2048" />
<glyph unicode=" "  horiz-adv-x="512" />
<glyph unicode="&#x09;" horiz-adv-x="512" />
<glyph unicode="&#xa0;" horiz-adv-x="512" />
<glyph unicode="!" horiz-adv-x="288" d="M109 23q0 40 34 40q35 0 35 -40q0 -39 -35 -39q-34 0 -34 39zM121 1370q0 25 22 25q23 0 23 -25l-10 -1102q0 -14 -13 -14q-12 0 -12 14z" />
<glyph unicode="&#x22;" horiz-adv-x="604" d="M186 1368q0 27 25 27t25 -27l-11 -362q0 -13 -14 -13t-14 13zM367 1368q0 27 24 27q25 0 25 -27l-10 -362q0 -13 -15 -13q-14 0 -14 13z" />
<glyph unicode="#" horiz-adv-x="1062" d="M92 483q0 6 5 11.5t12 5.5h182l53 344h-180q-7 0 -12 5t-5 11t5 11.5t12 5.5h186l70 442q3 16 18 16q6 0 11.5 -4.5t5.5 -11.5t-2 -19l-68 -423h360l70 442q3 16 19 16t16 -16q0 -7 -2 -19l-68 -423h174q7 0 12 -5.5t5 -11.5t-5 -11t-12 -5h-178l-53 -344h176 q7 0 11.5 -5.5t4.5 -11.5q0 -16 -16 -16h-182l-72 -467q-3 -16 -18 -16q-6 0 -11.5 4.5t-5.5 11.5q0 6 2 18l70 449h-360l-72 -467q-3 -16 -19 -16t-16 16q0 6 2 18l70 449h-178q-7 0 -12 5t-5 11zM328 500h358l53 344h-358z" />
<glyph unicode="$" horiz-adv-x="1116" d="M82 225q0 8 5.5 13.5t12.5 5.5q11 0 21 -17q60 -100 165 -161.5t251 -61.5q211 0 318.5 90.5t107.5 257.5q0 90 -45 156.5t-116.5 106t-158.5 71.5t-173.5 64t-158 70.5t-116.5 103.5t-45 153q0 141 92.5 232.5t289.5 97.5v190q0 6 5 11.5t12 5.5t11.5 -5.5t4.5 -11.5 v-190q137 -3 234.5 -53t167.5 -146q4 -6 4 -12q0 -7 -5.5 -11.5t-11.5 -4.5q-11 0 -16 8q-124 186 -385 186q-101 0 -175 -25.5t-114.5 -69.5t-59 -94t-18.5 -108q0 -64 28 -114.5t75 -84.5t108 -61.5t128.5 -51t134.5 -47.5t128 -56.5t108 -72.5t75 -100.5t28 -136.5 q0 -176 -109.5 -275.5t-324.5 -105.5v-188q0 -16 -16 -16q-7 0 -12 5t-5 11v188q-157 1 -267.5 66t-176.5 170q-6 9 -6 18z" />
<glyph unicode="%" horiz-adv-x="1527" d="M111 1073q0 334 274 334t274 -334t-274 -334t-274 334zM143 1073q0 -142 55.5 -222.5t186.5 -80.5t186.5 80.5t55.5 222.5t-55.5 222.5t-186.5 80.5t-186.5 -80.5t-55.5 -222.5zM397 0q0 6 4 14l691 1364q7 17 20 17q7 0 11.5 -5.5t4.5 -11.5t-4 -14l-690 -1364 q-6 -16 -20 -16q-7 0 -12 5t-5 11zM868 307q0 334 275 334q274 0 274 -334t-274 -334q-275 0 -275 334zM901 307q0 -142 55.5 -222.5t186.5 -80.5t186 80t55 223t-55 223t-186 80t-186.5 -80.5t-55.5 -222.5z" />
<glyph unicode="&#x26;" horiz-adv-x="1228" d="M92 348q0 80 35 151.5t86 122.5t131 109q-119 205 -119 385q0 126 68.5 208.5t195.5 82.5q111 0 178.5 -64t67.5 -184q0 -112 -82 -211t-260 -227q155 -272 494 -522q112 132 139 280q3 17 18 17q5 0 10 -4t5 -11q0 -8 -2 -18q-27 -134 -142 -285q158 -110 287 -162 q15 -6 15 -16q0 -6 -5 -11t-12 -5q-4 0 -16 4q-155 67 -291 164q-172 -181 -391 -181q-183 0 -296.5 101.5t-113.5 275.5zM129 348q0 -108 52.5 -187.5t135.5 -118t185 -38.5q113 0 207.5 50t156.5 118q-179 138 -296 258.5t-205 269.5q-37 -26 -67.5 -51t-63 -60t-54.5 -70 t-36.5 -79.5t-14.5 -91.5zM262 1116q0 -174 113 -364q71 51 122.5 93.5t100.5 95t74.5 107.5t25.5 111q0 101 -57 158t-152 57q-106 0 -166.5 -73t-60.5 -185z" />
<glyph unicode="'" horiz-adv-x="407" d="M186 1368q0 27 25 27t25 -27l-11 -362q0 -13 -14 -13t-14 13z" />
<glyph unicode="(" horiz-adv-x="620" d="M164 606q0 85 1.5 144.5t8.5 147t19.5 151t36.5 139.5t57.5 131t85 105.5t116.5 82.5q8 4 15 4q6 0 11 -4t5 -10q0 -12 -14 -20q-62 -31 -111 -82.5t-80.5 -107t-54 -132.5t-33.5 -138.5t-17.5 -147t-7.5 -136.5t-1 -127t1 -127t7.5 -136t17.5 -146.5t33.5 -138.5 t54 -132.5t80.5 -107t111 -82.5q14 -8 14 -21q0 -6 -5 -10t-11 -4q-7 0 -15 4q-65 32 -116.5 82.5t-85 105.5t-57.5 131t-36.5 139.5t-19.5 151t-8.5 147t-1.5 144.5z" />
<glyph unicode=")" horiz-adv-x="620" d="M100 -285q0 12 15 21q62 31 111 82.5t80.5 107t54 132.5t33.5 138.5t17.5 146.5t7.5 136t1 127t-1 127t-7.5 136.5t-17.5 147t-33.5 138.5t-54 132.5t-80.5 107t-111 82.5q-15 9 -15 20q0 6 5.5 10t11.5 4t14 -4q65 -32 116.5 -82.5t85 -106t58 -130.5t37 -139.5 t19.5 -151.5t8.5 -146.5t1.5 -144.5t-1.5 -144.5t-8.5 -146.5t-19.5 -151.5t-37 -139.5t-58 -130.5t-85 -106t-116.5 -82.5q-8 -4 -14 -4t-11.5 4t-5.5 10z" />
<glyph unicode="*" horiz-adv-x="731" d="M74 1204q0 19 16 19q5 0 21 -4l243 -70l-6 262q0 21 17 21q16 0 16 -21l-6 -262l243 70q16 4 21 4q16 0 16 -19q0 -13 -16 -16l-258 -58l164 -219q6 -9 6 -16q0 -6 -6 -11t-13 -5t-16 12l-151 227l-152 -227q-9 -12 -16 -12t-13 5t-6 11q0 7 6 16l164 219l-258 58 q-16 3 -16 16z" />
<glyph unicode="+" horiz-adv-x="909" d="M0 446q0 6 4.5 11.5t11.5 5.5h422v432q0 7 5.5 11.5t11.5 4.5q16 0 16 -16v-432h422q7 0 11.5 -5.5t4.5 -11.5q0 -16 -16 -16h-422v-430q0 -16 -16 -16q-6 0 -11.5 4.5t-5.5 11.5v430h-422q-16 0 -16 16z" />
<glyph unicode="," horiz-adv-x="288" d="M96 -203q0 5 4 13q29 45 29 106q0 30 -10 60.5t-10 46.5q0 40 34 40q35 0 35 -47q0 -62 -15 -124.5t-40 -98.5q-5 -8 -14 -8q-5 0 -9 4t-4 8z" />
<glyph unicode="-" horiz-adv-x="577" d="M84 516q0 16 16 16h375q7 0 12 -5t5 -11t-5 -11t-12 -5h-375q-16 0 -16 16z" />
<glyph unicode="." horiz-adv-x="288" d="M109 23q0 40 34 40q35 0 35 -40q0 -39 -35 -39q-34 0 -34 39z" />
<glyph unicode="/" horiz-adv-x="833" d="M115 -182q0 4 4 16l561 1690q5 14 18 14q8 0 13.5 -5.5t5.5 -12.5q0 -5 -4 -17l-561 -1689q-5 -15 -19 -15q-7 0 -12.5 5.5t-5.5 13.5z" />
<glyph unicode="0" horiz-adv-x="1208" d="M121 690q0 381 112 549t371 168t371 -168t112 -549q0 -382 -112 -550.5t-371 -168.5t-371 168.5t-112 550.5zM158 690q0 -366 102.5 -526t343.5 -160t344 160t103 526q0 365 -103 524.5t-344 159.5t-343.5 -159.5t-102.5 -524.5z" />
<glyph unicode="1" horiz-adv-x="702" d="M100 1122q0 10 11 17l352 250q9 6 16 6t13 -5.5t6 -13.5v-1374q0 -7 -5.5 -12.5t-13.5 -5.5q-7 0 -12.5 5t-5.5 13v1339l-328 -231q-9 -6 -14 -6q-8 0 -13.5 5.5t-5.5 12.5z" />
<glyph unicode="2" horiz-adv-x="1073" d="M113 18q0 78 28 146t75 119.5t108.5 98t129.5 87.5t135.5 82.5t129 89t108.5 100.5t75 122.5t28 150.5q0 154 -103.5 257t-273.5 103q-147 0 -229 -58t-121 -171q-5 -15 -21 -15q-6 0 -11 5t-5 12q0 4 2 10q82 250 385 250q186 0 300 -111t114 -282q0 -105 -45 -194 t-117 -152.5t-158.5 -120.5t-173.5 -110.5t-159 -109.5t-117 -130t-45 -160h817q7 0 12.5 -5.5t5.5 -13.5t-5.5 -13t-12.5 -5h-838q-7 0 -12.5 5t-5.5 13z" />
<glyph unicode="3" horiz-adv-x="1089" d="M84 205q0 14 16 14q13 0 21 -16q45 -97 150 -148t249 -51q206 0 309 100.5t103 288.5q0 79 -22 144.5t-66.5 117t-119.5 80.5t-175 29h-143q-8 0 -13.5 5.5t-5.5 12.5q0 11 10 21l465 538h-669q-7 0 -13 5.5t-6 13.5q0 7 5.5 12.5t13.5 5.5h708q8 0 13.5 -5.5t5.5 -12.5 t-7 -14l-471 -547h107q211 0 316.5 -110t105.5 -296q0 -200 -114.5 -311t-336.5 -111q-163 0 -273 59t-159 160q-4 8 -4 15z" />
<glyph unicode="4" horiz-adv-x="1069" d="M59 354q0 6 7 17l700 1011q9 13 18 13q8 0 13.5 -5.5t5.5 -13.5v-1005h168q18 0 18 -17q0 -8 -5.5 -13t-12.5 -5h-168v-334q0 -7 -5.5 -12.5t-13.5 -5.5t-13 5t-5 13v334h-688q-8 0 -13.5 5.5t-5.5 12.5zM113 371h653v948z" />
<glyph unicode="5" horiz-adv-x="1126" d="M113 238q0 16 16 16q10 0 16 -12q121 -238 414 -238q183 0 296.5 109t113.5 319q0 204 -113.5 310t-296.5 106q-121 0 -205 -35t-166 -123q-8 -8 -18 -8q-9 0 -16 6t-7 17q0 1 3 16l122 635q4 22 27 22h641q16 0 16 -16t-16 -16h-635l-119 -615q130 150 373 150 q206 0 327.5 -118t121.5 -331q0 -228 -122.5 -344.5t-326.5 -116.5q-313 0 -444 256q-2 4 -2 11z" />
<glyph unicode="6" horiz-adv-x="1159" d="M123 655q0 392 121.5 572t369.5 180q109 0 194 -32t128 -75q8 -8 8 -16q0 -16 -16 -16q-9 0 -17 8q-110 98 -297 98q-456 0 -456 -684v-94q59 119 165 192.5t259 73.5q209 0 331.5 -114t122.5 -328q0 -229 -120.5 -339t-333.5 -110q-119 0 -208 48t-143.5 139t-81 215 t-26.5 282zM166 553q0 -91 14.5 -170.5t46.5 -150t79.5 -120.5t118 -79t157.5 -29q193 0 305 99t112 317q0 138 -54 231t-146 135.5t-217 42.5q-276 0 -416 -276z" />
<glyph unicode="7" horiz-adv-x="983" d="M70 1362q0 16 16 16h813q16 0 16 -16q0 -91 -33.5 -177t-87 -159t-118.5 -149t-130 -164.5t-118.5 -187t-87 -234t-33.5 -289.5q0 -8 -5.5 -13t-12.5 -5q-8 0 -13.5 5.5t-5.5 12.5q0 122 21 233t56 198t81 166t96.5 144.5t100.5 126.5t96 118.5t81 113t56 118t21 126.5 h-793q-16 0 -16 16z" />
<glyph unicode="8" horiz-adv-x="1126" d="M106 367q0 160 84 259t236 126q-112 24 -183 107t-71 210q0 163 106 250.5t285 87.5t285 -87.5t106 -250.5q0 -127 -71 -210t-183 -107q152 -27 236 -126t84 -259q0 -195 -121 -295.5t-336 -100.5t-336 100.5t-121 295.5zM143 367q0 -178 114 -270.5t306 -92.5t306 92.5 t114 270.5q0 182 -109.5 274t-310.5 92t-310.5 -92t-109.5 -274zM209 1069q0 -145 97 -224t257 -79t257.5 79t97.5 224q0 149 -95.5 227t-259.5 78t-259 -78t-95 -227z" />
<glyph unicode="9" horiz-adv-x="1159" d="M123 958q0 229 120.5 339t334.5 110q119 0 207.5 -48t143 -139t81 -215t26.5 -282q0 -392 -121.5 -572t-369.5 -180q-109 0 -194 32t-128 75q-8 8 -8 16q0 7 5 12t11 5q8 0 17 -9q110 -98 297 -98q456 0 456 684v94q-59 -119 -164.5 -192.5t-258.5 -73.5 q-209 0 -332 114.5t-123 327.5zM160 958q0 -204 113 -306.5t305 -102.5q275 0 415 276q0 114 -23.5 210.5t-71.5 174t-129.5 121t-190.5 43.5q-93 0 -167 -22.5t-131.5 -70t-88.5 -129.5t-31 -194z" />
<glyph unicode=":" horiz-adv-x="288" d="M109 23q0 40 34 40q35 0 35 -40q0 -39 -35 -39q-34 0 -34 39zM109 893q0 41 34 41q35 0 35 -41q0 -39 -35 -39q-34 0 -34 39z" />
<glyph unicode=";" horiz-adv-x="288" d="M96 -203q0 5 4 13q29 45 29 106q0 30 -10 60.5t-10 46.5q0 40 34 40q35 0 35 -47q0 -62 -15 -124.5t-40 -98.5q-5 -8 -14 -8q-5 0 -9 4t-4 8zM109 893q0 41 34 41q35 0 35 -41q0 -39 -35 -39q-34 0 -34 39z" />
<glyph unicode="&#x3c;" horiz-adv-x="704" d="M23 481q0 10 10 17l618 491q6 4 13 4q16 0 16 -16q0 -9 -8 -14l-604 -482l604 -481q8 -5 8 -14q0 -6 -4.5 -11.5t-11.5 -5.5t-13 4l-618 492q-10 7 -10 16z" />
<glyph unicode="=" horiz-adv-x="909" d="M0 291q0 16 16 16h877q16 0 16 -16q0 -6 -4.5 -11.5t-11.5 -5.5h-877q-7 0 -11.5 5.5t-4.5 11.5zM0 604q0 6 4.5 11.5t11.5 5.5h877q7 0 11.5 -5.5t4.5 -11.5q0 -16 -16 -16h-877q-16 0 -16 16z" />
<glyph unicode="&#x3e;" horiz-adv-x="704" d="M25 -14q0 9 8 14l604 481l-604 482q-8 5 -8 14q0 16 16 16q6 0 12 -4l619 -491q10 -7 10 -17q0 -9 -10 -16l-619 -492q-6 -4 -12 -4q-7 0 -11.5 5.5t-4.5 11.5z" />
<glyph unicode="?" horiz-adv-x="944" d="M94 1051q0 168 91 262t278 94q182 0 283.5 -95t101.5 -257q0 -82 -25.5 -150t-66 -113.5t-89.5 -84t-97.5 -71.5t-89 -66t-66 -77t-25.5 -96q0 -78 51 -129q9 -9 9 -18q0 -8 -5.5 -13.5t-13.5 -5.5q-7 0 -18 11q-60 60 -60 155q0 57 25.5 105t66 83t89.5 68.5t97.5 71.5 t89 81t66 107t25.5 142q0 145 -90 232t-258 87t-250 -83.5t-82 -239.5q0 -8 -5.5 -13.5t-12.5 -5.5t-13 6t-6 13zM379 23q0 40 35 40t35 -40q0 -39 -35 -39t-35 39z" />
<glyph unicode="@" horiz-adv-x="1642" d="M92 352q0 369 188 556.5t539 187.5q162 0 294.5 -43.5t230 -128.5t151 -219t53.5 -306q0 -58 -8 -112t-30.5 -112.5t-57.5 -101.5t-94.5 -70.5t-136.5 -27.5q-72 0 -126 32.5t-67 92.5q-70 -125 -256 -125q-137 0 -206.5 60.5t-69.5 154.5q0 106 78.5 161t226.5 55h219 v106q0 89 -61 139.5t-162 50.5q-131 0 -199 -92q-8 -10 -18 -10q-15 0 -15 14q0 8 6 17q70 104 226 104q52 0 96.5 -13t82 -40t58.5 -74t21 -110v-353q0 -71 47.5 -104t118.5 -33t124.5 25.5t84.5 65t50.5 93.5t26 103.5t6.5 103.5q0 167 -50 295t-142 208t-218.5 120.5 t-283.5 40.5q-338 0 -514 -180t-176 -531q0 -182 48 -318t138.5 -221t216.5 -127t287 -42q311 0 490 133q11 8 20 8q6 0 11.5 -4.5t5.5 -11.5q0 -12 -17 -23q-106 -76 -222.5 -105.5t-287.5 -29.5q-346 0 -536.5 185t-190.5 556zM532 190q0 -79 58 -130.5t182 -51.5 q127 0 187.5 52.5t60.5 134.5v176h-219q-133 0 -201 -47t-68 -134z" />
<glyph unicode="A" horiz-adv-x="1236" d="M63 0q0 4 3 10l538 1374q4 11 14 11q11 0 15 -11l538 -1374q3 -6 3 -10q0 -7 -6 -11.5t-13 -4.5q-12 0 -18 14l-179 457h-679l-179 -457q-6 -14 -18 -14q-7 0 -13 4.5t-6 11.5zM291 487h655l-328 842z" />
<glyph unicode="B" horiz-adv-x="1118" d="M195 18v1342q0 8 5.5 13t12.5 5h356q203 0 296 -85.5t93 -248.5q0 -73 -24 -131.5t-63.5 -94.5t-83.5 -57t-91 -28q139 -6 233.5 -100t94.5 -260q0 -178 -96 -275.5t-289 -97.5h-426q-7 0 -12.5 5t-5.5 13zM231 33h408q180 0 266 88.5t86 251.5q0 161 -95 249.5 t-261 88.5h-404v-678zM231 743h338q162 0 257.5 79t95.5 222q0 302 -353 302h-338v-603z" />
<glyph unicode="C" horiz-adv-x="1288" d="M100 688q0 359 158.5 539t458.5 180q145 0 264.5 -55.5t189.5 -153.5q5 -8 5 -12q0 -8 -6 -13.5t-13 -5.5q-10 0 -16 9q-59 87 -175.5 142.5t-248.5 55.5q-285 0 -432.5 -173t-147.5 -513q0 -339 147.5 -511.5t432.5 -172.5q133 0 254 55.5t180 143.5q5 8 16 8 q8 0 13.5 -5.5t5.5 -12.5t-4 -13q-69 -97 -194 -153t-271 -56q-300 0 -458.5 179.5t-158.5 537.5z" />
<glyph unicode="D" horiz-adv-x="1234" d="M195 18v1342q0 8 5.5 13t12.5 5h301q150 0 262.5 -37t194 -117.5t123 -214.5t41.5 -321t-41.5 -320.5t-123 -213.5t-193.5 -117t-263 -37h-301q-7 0 -12.5 5t-5.5 13zM231 33h283q141 0 246.5 35t182.5 111.5t116 203.5t39 305q0 176 -39 303.5t-116 205t-182.5 113.5 t-246.5 36h-283v-1313z" />
<glyph unicode="E" d="M195 18v1342q0 18 16 18h700q7 0 12 -5t5 -11t-5 -11t-12 -5h-680v-635h535q7 0 11.5 -5.5t4.5 -11.5q0 -16 -16 -16h-535v-645h705q7 0 11.5 -5.5t4.5 -11.5q0 -16 -16 -16h-725q-16 0 -16 18z" />
<glyph unicode="F" d="M195 2v1358q0 18 16 18h700q7 0 12 -5t5 -11t-5 -11t-12 -5h-680v-656h535q16 0 16 -16q0 -6 -4.5 -11.5t-11.5 -5.5h-535v-655q0 -8 -5.5 -13t-12.5 -5t-12.5 5t-5.5 13z" />
<glyph unicode="G" horiz-adv-x="1372" d="M100 688q0 359 158.5 539t458.5 180q145 0 264.5 -55.5t189.5 -153.5q5 -8 5 -12q0 -8 -6 -13.5t-13 -5.5q-10 0 -16 9q-59 87 -175.5 142.5t-248.5 55.5q-285 0 -432.5 -173t-147.5 -513q0 -339 147.5 -511.5t432.5 -172.5q143 0 268 63t186 160v375h-401q-16 0 -16 16 q0 6 4.5 11.5t11.5 5.5h410q11 0 19.5 -8.5t8.5 -18.5v-368q0 -21 -16 -43q-75 -102 -201.5 -164t-273.5 -62q-300 0 -458.5 179.5t-158.5 537.5z" />
<glyph unicode="H" horiz-adv-x="1310" d="M195 2v1374q0 8 5.5 13.5t12.5 5.5t12.5 -5.5t5.5 -13.5v-649h848v649q0 8 5.5 13.5t13.5 5.5q7 0 12.5 -5.5t5.5 -13.5v-1374q0 -8 -5 -13t-13 -5t-13.5 5.5t-5.5 12.5v692h-848v-692q0 -8 -5.5 -13t-12.5 -5t-12.5 5t-5.5 13z" />
<glyph unicode="I" horiz-adv-x="425" d="M195 2v1374q0 8 5.5 13.5t12.5 5.5t12.5 -5.5t5.5 -13.5v-1374q0 -8 -5.5 -13t-12.5 -5t-12.5 5t-5.5 13z" />
<glyph unicode="J" horiz-adv-x="815" d="M55 33q0 6 5 11t12 5q6 0 22 -8q71 -35 182 -35q89 0 150.5 27t95.5 80t48 119t14 155v989q0 8 5.5 13.5t12.5 5.5q8 0 13.5 -5.5t5.5 -13.5v-989q0 -96 -16.5 -168t-54.5 -130t-107 -88t-167 -30q-128 0 -210 45q-11 6 -11 17z" />
<glyph unicode="K" horiz-adv-x="1107" d="M195 2v1374q0 8 5.5 13.5t12.5 5.5t12.5 -5.5t5.5 -13.5v-831l732 844q6 6 14 6q7 0 12.5 -5.5t5.5 -13.5t-6 -14l-487 -557l563 -791q4 -6 4 -14q0 -5 -4.5 -10.5t-11.5 -5.5q-12 0 -17 8l-559 784l-246 -284v-490q0 -8 -5.5 -13t-12.5 -5t-12.5 5t-5.5 13z" />
<glyph unicode="L" horiz-adv-x="958" d="M195 18v1358q0 8 5.5 13.5t12.5 5.5t12.5 -5.5t5.5 -13.5v-1343h654q7 0 11.5 -5.5t4.5 -11.5q0 -16 -16 -16h-674q-16 0 -16 18z" />
<glyph unicode="M" horiz-adv-x="1562" d="M174 2v1374q0 8 6 13.5t13 5.5q9 0 14 -9l563 -1103l561 1099q7 13 19 13q7 0 12.5 -5.5t5.5 -13.5v-1374q0 -8 -5 -13t-13 -5t-13.5 5.5t-5.5 12.5v1294l-540 -1054q-7 -13 -21 -13q-12 0 -18 13l-541 1054v-1294q0 -8 -5.5 -13t-12.5 -5q-8 0 -13.5 5.5t-5.5 12.5z" />
<glyph unicode="N" horiz-adv-x="1267" d="M174 2v1374q0 8 6 13.5t13 5.5q9 0 16 -11l848 -1318v1310q0 8 5.5 13.5t12.5 5.5t13 -5.5t6 -13.5v-1374q0 -7 -5.5 -12.5t-13.5 -5.5q-11 0 -18 10l-846 1319v-1311q0 -8 -5.5 -13t-12.5 -5q-8 0 -13.5 5.5t-5.5 12.5z" />
<glyph unicode="O" horiz-adv-x="1433" d="M100 688q0 359 158.5 539t458.5 180t458 -180t158 -539q0 -358 -158 -537.5t-458 -179.5t-458.5 179.5t-158.5 537.5zM137 688q0 -339 147.5 -511.5t432.5 -172.5t432 172.5t147 511.5q0 340 -147 513t-432 173t-432.5 -173t-147.5 -513z" />
<glyph unicode="P" horiz-adv-x="1093" d="M195 2v1358q0 8 5.5 13t12.5 5h414q168 0 267 -98t99 -287q0 -187 -99 -286t-267 -99h-396v-606q0 -8 -5.5 -13t-12.5 -5t-12.5 5t-5.5 13zM231 641h396q154 0 241.5 95t87.5 257q0 165 -86.5 259t-242.5 94h-396v-705z" />
<glyph unicode="Q" horiz-adv-x="1433" d="M100 688q0 359 158.5 539t458.5 180t458 -180t158 -539q0 -303 -113 -477.5t-329 -220.5q70 -15 141 -60.5t127 -107.5q8 -8 8 -15q0 -6 -5 -11t-11 -5t-14 8q-161 172 -359 172h-61q-300 0 -458.5 179.5t-158.5 537.5zM137 688q0 -339 147.5 -511.5t432.5 -172.5 t432 172.5t147 511.5q0 340 -147 513t-432 173t-432.5 -173t-147.5 -513z" />
<glyph unicode="R" horiz-adv-x="1114" d="M195 2v1358q0 8 5.5 13t12.5 5h420q162 0 268.5 -107t106.5 -265t-106.5 -265.5t-268.5 -107.5h-43q29 -39 75.5 -103.5t145 -200.5t163 -225t62.5 -86q6 -8 6 -16q0 -7 -5 -12.5t-13 -5.5q-11 0 -18 10l-457 639h-318v-631q0 -8 -5.5 -13t-12.5 -5t-12.5 5t-5.5 13z M231 666h402q151 0 244.5 99.5t93.5 240.5t-93.5 240.5t-244.5 99.5h-402v-680z" />
<glyph unicode="S" horiz-adv-x="1116" d="M82 225q0 8 5.5 13.5t12.5 5.5q11 0 21 -17q60 -100 165 -161.5t251 -61.5q211 0 318.5 90.5t107.5 257.5q0 90 -45 156.5t-116.5 106t-158.5 71.5t-173.5 64t-158 70.5t-116.5 103.5t-45 153q0 69 22.5 126.5t68.5 104t126 73t186 26.5q143 0 242.5 -50t171.5 -149 q4 -6 4 -12q0 -7 -5.5 -11.5t-11.5 -4.5q-11 0 -16 8q-124 186 -385 186q-101 0 -175 -25.5t-114.5 -69.5t-59 -94t-18.5 -108q0 -64 28 -114.5t75 -84.5t108 -61.5t128.5 -51t134.5 -47.5t128 -56.5t108 -72.5t75 -100.5t28 -136.5q0 -182 -116.5 -281.5t-345.5 -99.5 q-158 0 -269.5 65t-179.5 171q-6 9 -6 18z" />
<glyph unicode="T" horiz-adv-x="1101" d="M78 1362q0 16 16 16h914q16 0 16 -16t-16 -16h-439v-1344q0 -8 -5.5 -13t-12.5 -5q-8 0 -13.5 5.5t-5.5 12.5v1344h-438q-16 0 -16 16z" />
<glyph unicode="U" horiz-adv-x="1280" d="M195 381v995q0 8 5.5 13.5t12.5 5.5t12.5 -5.5t5.5 -13.5v-995q0 -66 10 -118.5t38.5 -102.5t74.5 -83t122 -53t177 -20t176.5 20t120.5 53t72.5 83.5t37 102.5t9.5 118v995q0 8 5.5 13.5t12.5 5.5t13 -5.5t6 -13.5v-995q0 -70 -10.5 -126.5t-40.5 -111t-79.5 -91 t-131 -59t-191.5 -22.5t-192 22.5t-132 59t-81 91t-42 111t-11 126.5z" />
<glyph unicode="V" horiz-adv-x="1179" d="M61 1376q0 8 5.5 13.5t13.5 5.5q13 0 18 -15l492 -1337l491 1337q5 15 19 15q7 0 12.5 -5.5t5.5 -13.5q0 -2 -4 -14l-506 -1364q-6 -14 -18 -14q-13 0 -19 14l-505 1364q-1 2 -2 5t-2 5t-1 4z" />
<glyph unicode="W" horiz-adv-x="1691" d="M63 1376q0 8 5.5 13.5t13.5 5.5q15 0 18 -17l361 -1329l366 1331q4 15 19 15q14 0 18 -15l367 -1331l360 1329q3 17 19 17q7 0 12.5 -5.5t5.5 -13.5q0 -4 -2 -12l-377 -1366q-3 -14 -18 -14q-13 0 -19 14l-366 1321l-367 -1321q-6 -14 -18 -14q-16 0 -19 14l-376 1366 q-1 3 -2 7t-1 5z" />
<glyph unicode="X" horiz-adv-x="995" d="M27 2q0 6 4 12l446 695l-420 655q-4 6 -4 12q0 8 5.5 13.5t13.5 5.5q10 0 18 -13l408 -639l407 639q8 13 19 13q7 0 12.5 -5.5t5.5 -13.5q0 -6 -4 -12l-420 -655l447 -695q4 -6 4 -12q0 -7 -5.5 -12.5t-13.5 -5.5t-16 10l-436 678l-437 -678q-7 -10 -16 -10q-7 0 -12.5 5 t-5.5 13z" />
<glyph unicode="Y" d="M57 1376q0 8 5.5 13.5t13.5 5.5q9 0 16 -11l428 -679l428 679q7 11 17 11q7 0 12.5 -5.5t5.5 -13.5q0 -6 -4 -12l-440 -698v-664q0 -7 -5.5 -12.5t-13.5 -5.5t-13 5t-5 13v664l-441 698q-4 6 -4 12z" />
<glyph unicode="Z" horiz-adv-x="1017" d="M33 16q0 8 6 17l856 1313h-799q-16 0 -16 16t16 16h832q16 0 16 -16q0 -5 -6 -14l-854 -1315h877q7 0 11.5 -5.5t4.5 -11.5q0 -16 -16 -16h-912q-16 0 -16 16z" />
<glyph unicode="[" horiz-adv-x="477" d="M154 -281v1774q0 7 5 12.5t13 5.5h172q16 0 16 -16t-16 -16h-154v-1745h154q7 0 11.5 -5.5t4.5 -11.5q0 -16 -16 -16h-172q-8 0 -13 5.5t-5 12.5z" />
<glyph unicode="\" horiz-adv-x="833" d="M117 1520q0 8 5.5 13t12.5 5q14 0 19 -14l561 -1690q4 -12 4 -16q0 -8 -5.5 -13.5t-13.5 -5.5q-13 0 -18 15l-561 1689q-4 12 -4 17z" />
<glyph unicode="]" horiz-adv-x="479" d="M117 -283q0 6 4.5 11.5t11.5 5.5h154v1745h-154q-16 0 -16 16t16 16h172q8 0 13.5 -5.5t5.5 -12.5v-1774q0 -7 -5.5 -12.5t-13.5 -5.5h-172q-16 0 -16 16z" />
<glyph unicode="^" horiz-adv-x="958" d="M90 770q0 6 6 16l361 615q8 14 22 14q15 0 23 -14l360 -615q6 -10 6 -16q0 -14 -14 -14q-9 0 -14 8l-361 614l-360 -614q-5 -8 -15 -8q-14 0 -14 14z" />
<glyph unicode="_" horiz-adv-x="831" d="M-33 -141q0 6 5 11t12 5h864q16 0 16 -16q0 -6 -4.5 -11.5t-11.5 -5.5h-864q-7 0 -12 5.5t-5 11.5z" />
<glyph unicode="`" horiz-adv-x="757" d="M264 1309q-17 17 0 32q17 14 31 -4l207 -243q10 -10 0 -21q-11 -8 -21 2z" />
<glyph unicode="a" horiz-adv-x="946" d="M82 254q0 133 93 204.5t251 71.5h342v107q0 138 -81 213.5t-224 75.5q-206 0 -293 -148q-6 -12 -18 -12q-6 0 -11.5 5t-5.5 11q0 8 6 17q98 159 322 159q166 0 253 -86t87 -235v-635q0 -16 -19 -16q-16 0 -16 16v150q-40 -87 -133 -132t-213 -45q-166 0 -253 76.5 t-87 202.5zM119 254q0 -115 78 -180.5t225 -65.5q69 0 129.5 16.5t110 48.5t78 86t28.5 124v217h-342q-139 0 -223 -65t-84 -181z" />
<glyph unicode="b" horiz-adv-x="1034" d="M164 371v1069q0 8 5 13t13 5t13.5 -5.5t5.5 -12.5v-686q4 8 11.5 22t37 49t66 62t100.5 49t137 22q197 0 293 -120t96 -371t-96 -372.5t-293 -121.5q-178 0 -283.5 102t-105.5 296zM201 371q0 -176 95 -270.5t257 -94.5q352 0 352 461q0 459 -352 459q-55 0 -104 -13 t-83.5 -34.5t-63.5 -47t-47 -51t-31 -47t-18 -34.5l-5 -13v-315z" />
<glyph unicode="c" horiz-adv-x="907" d="M92 465q0 248 104 370.5t304 122.5q109 0 180.5 -34.5t107.5 -75.5q9 -9 9 -14q0 -6 -5 -11.5t-12 -5.5q-8 0 -14 6q-103 103 -266 103q-371 0 -371 -461q0 -459 371 -459q151 0 280 103q9 6 15 6q7 0 11.5 -5.5t4.5 -11.5q0 -8 -10 -16q-137 -109 -301 -109 q-408 0 -408 492z" />
<glyph unicode="d" horiz-adv-x="1024" d="M92 467q0 251 96 371t293 120q73 0 136.5 -21t101.5 -51t65.5 -60t38.5 -51l11 -21v686q0 8 5 13t13 5t13 -5t5 -13v-1069q0 -194 -105.5 -296t-283.5 -102q-197 0 -293 121.5t-96 372.5zM129 467q0 -461 352 -461q162 0 257.5 94.5t95.5 270.5v315q-2 5 -5.5 13.5 t-17.5 33.5t-31.5 47.5t-47.5 50.5t-64 48t-83 33.5t-104 13.5q-352 0 -352 -459z" />
<glyph unicode="e" horiz-adv-x="954" d="M92 467q0 491 408 491q97 0 169 -28.5t110 -69t60.5 -98t28.5 -101.5t6 -94q0 -43 -6 -80q-5 -24 -32 -24h-707q0 -457 371 -457q174 0 311 100q13 9 16 9q6 0 11.5 -5t5.5 -12q0 -6 -6 -12q-139 -113 -338 -113q-408 0 -408 494zM131 496h707q2 55 2 71q0 54 -8 101 t-30.5 96t-59 83.5t-98.5 56.5t-144 22q-183 0 -276 -110.5t-93 -319.5z" />
<glyph unicode="f" horiz-adv-x="561" d="M61 913q0 6 5.5 11.5t11.5 5.5h129v131q0 156 82.5 249t245.5 93q7 0 11.5 -5.5t4.5 -11.5q0 -16 -16 -16q-145 0 -218 -80t-73 -229v-131h254q6 0 11 -5.5t5 -11.5t-5 -11t-11 -5h-254v-895q0 -7 -5.5 -12.5t-13.5 -5.5q-7 0 -12.5 5t-5.5 13v895h-129q-6 0 -11.5 5 t-5.5 11z" />
<glyph unicode="g" horiz-adv-x="954" d="M90 -139q0 86 59.5 151t129.5 80q-63 6 -107.5 39t-44.5 107q0 97 100 137q-100 84 -100 252q0 155 91.5 243t260.5 88q142 0 232 -65q45 125 188 125q6 0 11 -5.5t5 -11.5t-5 -11t-11 -5q-67 0 -105.5 -26.5t-58.5 -86.5q96 -87 96 -245q0 -155 -91.5 -243.5 t-260.5 -88.5q-139 0 -225 59q-52 -18 -72 -45.5t-20 -70.5q0 -59 34 -88t113 -29h264q161 0 255 -61.5t94 -190.5q0 -140 -112.5 -210.5t-305.5 -70.5q-82 0 -153.5 15t-131.5 46t-94.5 85.5t-34.5 126.5zM127 -139q0 -64 30.5 -112t85 -75t120 -40t143.5 -13 q172 0 275.5 61.5t103.5 186.5q0 112 -82.5 165.5t-229.5 53.5h-202q-113 -15 -178.5 -77.5t-65.5 -149.5zM164 627q0 -136 80 -217.5t235 -81.5t235.5 81.5t80.5 217.5t-80.5 217.5t-235.5 81.5t-235 -81.5t-80 -217.5z" />
<glyph unicode="h" horiz-adv-x="1024" d="M164 2v1438q0 8 5 13t13 5t13.5 -5.5t5.5 -12.5v-697q12 37 37 73t64 69t99 53t131 20q84 0 147 -20t101 -52.5t61 -81t31.5 -98t8.5 -110.5v-594q0 -7 -5.5 -12.5t-13.5 -5.5t-13 5t-5 13v612q0 67 -14 119.5t-47.5 97t-97 69t-153.5 24.5q-80 0 -145 -27.5t-104.5 -73 t-60.5 -101.5t-21 -116v-604q0 -7 -5.5 -12.5t-13.5 -5.5t-13 5t-5 13z" />
<glyph unicode="i" horiz-adv-x="364" d="M158 1266q0 32 24 32q25 0 25 -32q0 -31 -25 -31q-24 0 -24 31zM164 2v926q0 8 5 13t13 5t13.5 -5.5t5.5 -12.5v-926q0 -7 -5.5 -12.5t-13.5 -5.5t-13 5t-5 13z" />
<glyph unicode="j" horiz-adv-x="374" d="M-66 -395q0 6 5 11t12 5q102 0 162.5 72.5t60.5 187.5v1047q0 7 5.5 12.5t13.5 5.5q7 0 12.5 -5t5.5 -13v-1047q0 -127 -69.5 -210t-190.5 -83q-7 0 -12 5.5t-5 11.5zM166 1266q0 32 24 32q25 0 25 -32q0 -31 -25 -31q-24 0 -24 31z" />
<glyph unicode="k" horiz-adv-x="888" d="M164 2v1438q0 8 5 13t13 5t13.5 -5.5t5.5 -12.5v-998l594 498q6 6 14 6q7 0 12.5 -5t5.5 -13q0 -10 -8 -15l-422 -354l441 -541q8 -8 8 -16q0 -7 -5.5 -12.5t-13.5 -5.5q-10 0 -16 8l-442 543l-168 -140v-393q0 -7 -5.5 -12.5t-13.5 -5.5t-13 5t-5 13z" />
<glyph unicode="l" horiz-adv-x="405" d="M154 205v1235q0 8 5 13t13 5t13 -5t5 -13v-1235q0 -95 27.5 -142t106.5 -47q16 0 16 -16t-16 -16q-97 0 -133.5 56.5t-36.5 164.5z" />
<glyph unicode="m" horiz-adv-x="1654" d="M164 2v926q0 8 5 13t13 5t13.5 -5.5t5.5 -12.5v-185q12 39 34 74t58 68.5t93 53t128 19.5q156 0 237 -65.5t97 -173.5q14 62 49.5 113.5t107.5 88.5t169 37q84 0 146.5 -20t99.5 -52.5t59.5 -81.5t30.5 -98t8 -110v-594q0 -7 -5.5 -12.5t-13.5 -5.5q-7 0 -12.5 5t-5.5 13 v612q0 67 -13.5 119t-46 97.5t-95 69.5t-152.5 24q-79 0 -141.5 -27.5t-99.5 -73.5t-56 -101.5t-19 -115.5v-604q0 -8 -5 -13t-13 -5t-13.5 5.5t-5.5 12.5v637q0 58 -15 106.5t-48.5 90t-95.5 65t-148 23.5q-80 0 -142.5 -27.5t-98.5 -73.5t-54 -101t-18 -116v-604 q0 -7 -5.5 -12.5t-13.5 -5.5t-13 5t-5 13z" />
<glyph unicode="n" horiz-adv-x="1024" d="M164 2v926q0 8 5 13t13 5t13.5 -5.5t5.5 -12.5v-185q12 38 37 74t64 68.5t99 52.5t131 20q84 0 147 -20t101 -52.5t61 -81t31.5 -98t8.5 -110.5v-594q0 -7 -5.5 -12.5t-13.5 -5.5t-13 5t-5 13v612q0 67 -14 119.5t-47.5 97t-97 69t-153.5 24.5q-80 0 -145 -27.5 t-104.5 -73t-60.5 -101.5t-21 -116v-604q0 -7 -5.5 -12.5t-13.5 -5.5t-13 5t-5 13z" />
<glyph unicode="o" horiz-adv-x="999" d="M92 465q0 493 408 493q407 0 407 -493q0 -492 -407 -492q-408 0 -408 492zM129 465q0 -459 371 -459q185 0 277.5 113.5t92.5 345.5q0 234 -92.5 347.5t-277.5 113.5q-371 0 -371 -461z" />
<glyph unicode="p" horiz-adv-x="1034" d="M164 -393v1321q0 8 5 13t13 5t13.5 -5.5t5.5 -12.5v-213q73 243 348 243q198 0 295.5 -121t97.5 -372t-97.5 -371.5t-295.5 -120.5q-60 0 -111.5 13.5t-86 35t-62.5 47.5t-43.5 52t-26.5 47.5t-15 35.5l-3 13v-610q0 -7 -5.5 -13t-13.5 -6q-7 0 -12.5 5.5t-5.5 13.5z M197 467q0 -228 90 -344.5t262 -116.5q177 0 266.5 116t89.5 343q0 461 -356 461q-172 0 -262 -115t-90 -344z" />
<glyph unicode="q" horiz-adv-x="1011" d="M92 465q0 251 96 372t293 121q178 0 283.5 -101.5t105.5 -295.5v-954q0 -8 -5.5 -13.5t-12.5 -5.5t-12.5 5.5t-5.5 13.5v571q-4 -8 -11.5 -22t-37.5 -49.5t-66.5 -62.5t-100.5 -49t-137 -22q-197 0 -293 120.5t-96 371.5zM129 465q0 -459 352 -459q55 0 104 13t83.5 34.5 t63.5 47t47.5 51t31 47t17.5 34.5l6 13v315q0 176 -95.5 270.5t-257.5 94.5q-352 0 -352 -461z" />
<glyph unicode="r" horiz-adv-x="579" d="M164 2v920q0 8 5 13t13 5t13.5 -5.5t5.5 -12.5v-207q10 42 35 82.5t64.5 76.5t100 58t131.5 22q7 0 12 -5t5 -11t-5 -11t-12 -5q-68 0 -124.5 -21.5t-94 -57t-63.5 -81.5t-37.5 -94.5t-11.5 -96.5v-569q0 -7 -5.5 -12.5t-13.5 -5.5t-13 5t-5 13z" />
<glyph unicode="s" horiz-adv-x="817" d="M63 125q0 6 4.5 11t12.5 5q6 0 14 -8q123 -127 312 -127q135 0 212.5 54t77.5 167q0 61 -32.5 106t-84.5 71.5t-115 48t-126 43.5t-115 49.5t-84.5 74t-32.5 109.5q0 113 81.5 171t213.5 58q98 0 177 -37t120 -98q4 -6 4 -12t-5 -11t-11 -5q-9 0 -14 8q-38 57 -110 90 t-161 33q-119 0 -188.5 -50t-69.5 -147q0 -57 32.5 -98.5t84.5 -66.5t115 -46t126 -44t115 -52t84.5 -78.5t32.5 -116.5q0 -129 -88 -191.5t-239 -62.5q-114 0 -198.5 42t-137.5 98q-7 7 -7 12z" />
<glyph unicode="t" horiz-adv-x="528" d="M51 913q0 6 5.5 11.5t11.5 5.5h127v262q0 8 5.5 13t12.5 5t12.5 -5t5.5 -13v-262h185q6 0 11 -5.5t5 -11.5t-5 -11t-11 -5h-185v-672q0 -104 39 -156.5t129 -52.5q7 0 12 -5t5 -11t-5 -11t-12 -5q-204 0 -204 241v672h-127q-6 0 -11.5 5t-5.5 11z" />
<glyph unicode="u" horiz-adv-x="1003" d="M143 336v592q0 7 5.5 12.5t13.5 5.5t13 -5t5 -13v-611q0 -309 322 -309q321 0 321 309v611q0 7 5.5 12.5t13.5 5.5t13 -5t5 -13v-592q0 -363 -358 -363q-359 0 -359 363z" />
<glyph unicode="v" horiz-adv-x="876" d="M49 928q0 7 5.5 12.5t13.5 5.5q12 0 18 -14l352 -891l353 891q6 14 18 14q7 0 12.5 -5t5.5 -13q0 -3 -4 -15l-366 -915q-6 -14 -19 -14q-12 0 -18 14l-367 915q-4 12 -4 15z" />
<glyph unicode="w" horiz-adv-x="1343" d="M49 928q0 7 5.5 12.5t13.5 5.5q13 0 18 -14l309 -885l258 885q3 14 19 14q14 0 18 -14l258 -885l309 885q5 14 19 14q8 0 13 -5t5 -13q0 -5 -4 -17l-323 -911q-4 -16 -19 -16q-16 0 -20 16l-256 881l-256 -881q-4 -16 -21 -16q-14 0 -18 16l-324 911q-4 12 -4 17z" />
<glyph unicode="x" horiz-adv-x="786" d="M43 2q0 6 4 12l322 459l-314 442q-4 6 -4 13t5.5 12.5t13.5 5.5q9 0 16 -10l307 -436l305 436q7 10 17 10q7 0 12.5 -5t5.5 -13q0 -7 -4 -13l-313 -446l321 -455q4 -6 4 -12q0 -8 -5.5 -13t-12.5 -5q-9 0 -16 10l-316 446l-313 -446q-7 -10 -17 -10q-7 0 -12.5 5t-5.5 13 z" />
<glyph unicode="y" horiz-adv-x="876" d="M35 -395q0 16 16 16q37 0 66.5 4t54.5 10t47 21t38.5 28t34.5 40t31 49t31 63.5t31 73t35 88.5l-367 915q-4 12 -4 15q0 7 5.5 12.5t13.5 5.5q12 0 18 -14l352 -891l353 891q6 14 18 14q7 0 12.5 -5t5.5 -13q0 -3 -4 -15l-424 -1056q-62 -154 -135 -211.5t-213 -57.5 q-7 0 -11.5 5.5t-4.5 11.5z" />
<glyph unicode="z" horiz-adv-x="798" d="M59 16q0 4 7 15l614 866h-561q-7 0 -12 5t-5 11t5 11.5t12 5.5h592q7 0 11.5 -5.5t4.5 -11.5q0 -5 -6 -14l-612 -866h614q6 0 11 -5.5t5 -11.5t-5 -11t-11 -5h-647q-6 0 -11.5 4.5t-5.5 11.5z" />
<glyph unicode="{" horiz-adv-x="606" d="M72 606q0 6 4.5 11.5t11.5 5.5h27q107 0 154.5 55t47.5 176q0 81 -13 240t-13 245q0 81 47 126.5t129 45.5q16 0 16 -16t-16 -16q-64 0 -101.5 -35t-37.5 -105q0 -80 11 -244t11 -243q0 -112 -48 -179t-140 -67q92 0 140 -67t48 -179q0 -79 -11 -243t-11 -244 q0 -70 37.5 -104.5t101.5 -34.5q7 0 11.5 -5.5t4.5 -11.5q0 -16 -16 -16q-82 0 -129 45.5t-47 126.5q0 86 13 245t13 240q0 121 -47.5 176.5t-154.5 55.5h-27q-16 0 -16 16z" />
<glyph unicode="|" horiz-adv-x="446" d="M205 -309v1945q0 8 5.5 13.5t12.5 5.5t13 -5.5t6 -13.5v-1945q0 -7 -6 -13t-13 -6t-12.5 5.5t-5.5 13.5z" />
<glyph unicode="}" horiz-adv-x="606" d="M123 -283q0 6 4.5 11.5t11.5 5.5q64 0 102 35t38 104q0 80 -11.5 244t-11.5 243q0 112 48 179t140 67q-92 0 -140 67t-48 179q0 79 11.5 243t11.5 244q0 70 -38 105t-102 35q-16 0 -16 16t16 16q82 0 129 -45.5t47 -126.5q0 -86 -13 -245t-13 -240q0 -121 48 -176 t155 -55h26q7 0 12 -5.5t5 -11.5t-5 -11t-12 -5h-26q-107 0 -155 -55.5t-48 -176.5q0 -81 13 -240t13 -245q0 -81 -47 -126.5t-129 -45.5q-16 0 -16 16z" />
<glyph unicode="~" horiz-adv-x="976" d="M90 569q0 7 4 15q25 50 80 92.5t135 42.5q52 0 103.5 -22.5t86 -49.5t80 -49.5t87.5 -22.5q68 0 115 35.5t71 85.5q6 13 18 13q15 0 15 -17q0 -6 -4 -14q-25 -50 -80 -92.5t-135 -42.5q-47 0 -95.5 22.5t-83.5 49t-83.5 49t-94.5 22.5q-68 0 -115 -35.5t-71 -85.5 q-6 -12 -19 -12q-14 0 -14 16z" />
<glyph unicode="&#xa1;" horiz-adv-x="288" d="M109 920q0 38 34 38q35 0 35 -38q0 -41 -35 -41q-34 0 -34 41zM121 -428l10 1102q0 14 12 14q13 0 13 -14l10 -1102q0 -25 -23 -25q-22 0 -22 25z" />
<glyph unicode="&#xa2;" horiz-adv-x="907" d="M92 465q0 481 389 493v148q0 7 5.5 12.5t13.5 5.5t13 -5t5 -13v-148q173 -7 270 -110q9 -9 9 -14q0 -6 -5 -11.5t-12 -5.5q-8 0 -14 6q-103 103 -266 103q-371 0 -371 -461q0 -459 371 -459q151 0 280 103q9 6 15 6q7 0 11.5 -5.5t4.5 -11.5q0 -8 -10 -16 q-130 -103 -283 -109v-174q0 -7 -5 -12.5t-13 -5.5t-13.5 5.5t-5.5 12.5v174q-389 12 -389 492z" />
<glyph unicode="&#xa3;" horiz-adv-x="1196" d="M156 637q0 16 16 16h121q-6 11 -27.5 53.5t-29 59t-23.5 55t-22.5 65t-12.5 64t-6 74.5q0 169 114 276t308 107q317 0 420 -272q4 -12 4 -19q0 -16 -17 -16q-13 0 -18 16q-41 115 -136.5 186.5t-252.5 71.5q-177 0 -281 -97.5t-104 -252.5q0 -37 6 -74.5t12.5 -63.5 t22.5 -64.5t24 -54.5t30 -59.5t28 -54.5h405q7 0 12 -5t5 -11t-5 -11t-12 -5h-389q64 -131 64 -252q0 -79 -42.5 -163t-99.5 -138q85 49 185 49q55 0 112.5 -18t98.5 -39.5t92 -39.5t94 -18q85 0 144.5 34.5t97.5 119.5q7 14 18 14q7 0 12.5 -5t5.5 -11q0 -9 -4 -17 q-47 -92 -110.5 -131t-163.5 -39q-51 0 -105.5 18.5t-95 40t-94 40t-102.5 18.5q-58 0 -106.5 -15t-73 -30.5t-62.5 -46.5q-12 -8 -18 -8q-8 0 -13.5 5.5t-5.5 12.5q0 8 10 18q191 187 191 349q0 112 -68 252h-137q-16 0 -16 16z" />
<glyph unicode="&#xa4;" horiz-adv-x="956" d="M63 242q0 7 9 16l133 135q-88 106 -88 246q0 141 92 248l-137 139q-9 9 -9 16q0 8 5.5 13.5t13.5 5.5q10 0 16 -8l135 -140q107 99 248 99q142 0 242 -94l133 135q6 8 16 8q8 0 13.5 -5.5t5.5 -13.5t-8 -16l-133 -135q96 -107 96 -252q0 -138 -94 -250l131 -131 q8 -8 8 -16t-5.5 -13.5t-13.5 -5.5q-10 0 -16 8l-129 131q-104 -96 -246 -96q-149 0 -250 101l-133 -136q-6 -8 -16 -8q-8 0 -13.5 5.5t-5.5 13.5zM154 639q0 -142 93.5 -240t233.5 -98t234 98t94 240t-94 240t-234 98t-233.5 -98t-93.5 -240z" />
<glyph unicode="&#xa5;" d="M57 1376q0 8 5.5 13.5t13.5 5.5q9 0 16 -11l428 -679l428 679q7 11 17 11q7 0 12.5 -5.5t5.5 -13.5q0 -6 -4 -12l-440 -698v-25h295q16 0 16 -16q0 -6 -4.5 -11.5t-11.5 -5.5h-295v-174h295q16 0 16 -16q0 -6 -4.5 -11.5t-11.5 -5.5h-295v-399q0 -7 -5.5 -12.5 t-13.5 -5.5t-13 5t-5 13v399h-297q-7 0 -12 5.5t-5 11.5t5 11t12 5h297v174h-297q-7 0 -12 5.5t-5 11.5t5 11t12 5h297v25l-441 698q-4 6 -4 12z" />
<glyph unicode="&#xa6;" horiz-adv-x="446" d="M205 -309v889q0 8 5.5 13t12.5 5q8 0 13.5 -5.5t5.5 -12.5v-889q0 -7 -6 -13t-13 -6t-12.5 5.5t-5.5 13.5zM205 748v888q0 8 5.5 13.5t12.5 5.5t13 -5.5t6 -13.5v-888q0 -8 -6 -13.5t-13 -5.5t-12.5 5.5t-5.5 13.5z" />
<glyph unicode="&#xa7;" horiz-adv-x="1032" d="M98 580q0 155 144 284q-111 90 -111 232q0 132 101 221.5t298 89.5q125 0 224.5 -49.5t154.5 -128.5q6 -9 6 -17q0 -6 -4.5 -10t-9.5 -4q-9 0 -16 10q-127 166 -355 166q-97 0 -169.5 -23.5t-113 -64.5t-60 -88.5t-19.5 -101.5q0 -66 26 -117.5t70.5 -84t101.5 -58 t120.5 -45.5l127 -40t120.5 -48t101.5 -63.5t70.5 -91.5t26 -128q0 -160 -144 -289q111 -90 111 -231q0 -132 -101 -222t-298 -90q-125 0 -224 50t-155 129q-6 9 -6 16q0 6 4.5 10t9.5 4q9 0 16 -10q127 -166 355 -166q97 0 169.5 24t113 64.5t60 88.5t19.5 102 q0 66 -26 117.5t-70.5 84t-101.5 58t-120.5 45.5t-127 40.5t-120.5 48.5t-101.5 64t-70.5 92.5t-26 129.5zM135 580q0 -72 31 -126.5t79.5 -86.5t116.5 -61t132.5 -47.5t139 -47t124.5 -59.5q137 116 137 268q0 71 -31 125t-79.5 85.5t-116.5 60t-133 47t-139 47t-124 59.5 q-137 -116 -137 -264z" />
<glyph unicode="&#xa8;" horiz-adv-x="507" d="M98 1161q0 33 31 33t31 -33t-31 -33t-31 33zM348 1161q0 33 31 33t31 -33t-31 -33t-31 33z" />
<glyph unicode="&#xa9;" horiz-adv-x="1662" d="M150 688q0 358 177 538.5t504 180.5t504.5 -180.5t177.5 -538.5q0 -356 -177.5 -536.5t-504.5 -180.5t-504 180.5t-177 536.5zM186 688q0 -342 167 -513t478 -171q312 0 479 171t167 513q0 343 -167 514.5t-479 171.5t-478.5 -171.5t-166.5 -514.5zM520 688 q0 188 79 281.5t230 93.5q83 0 139 -25.5t83 -58.5q6 -8 6 -16q0 -6 -5 -10.5t-10 -4.5q-8 0 -14 6q-72 76 -199 76q-272 0 -272 -342q0 -173 67.5 -256.5t204.5 -83.5q135 0 211 76q6 6 15 6q5 0 9.5 -4t4.5 -10q0 -7 -6 -15q-30 -32 -91 -59t-143 -27q-309 0 -309 373z " />
<glyph unicode="&#xaa;" horiz-adv-x="780" d="M102 584q0 6 5 11t12 5h540q7 0 12 -5t5 -11t-5 -11.5t-12 -5.5h-540q-7 0 -12 5.5t-5 11.5zM145 928q0 87 62.5 137.5t181.5 50.5h213v68q0 86 -56 139t-151 53q-115 0 -180 -88q-5 -8 -16 -8q-5 0 -10 4t-5 10q0 8 6 17q28 41 80 68.5t125 27.5q117 0 178.5 -63.5 t61.5 -159.5v-422q0 -17 -17 -17q-16 0 -16 17v90q-30 -53 -87.5 -83t-135.5 -30q-112 0 -173 50.5t-61 138.5zM180 928q0 -75 52.5 -116.5t146.5 -41.5q96 0 159.5 51.5t63.5 157.5v104h-213q-100 0 -154.5 -41t-54.5 -114z" />
<glyph unicode="&#xab;" horiz-adv-x="950" d="M129 434q0 9 12 21l363 419q7 7 12 7q7 0 11.5 -5.5t4.5 -11.5q0 -8 -8 -16l-358 -414l358 -414q8 -8 8 -16q0 -16 -16 -16q-6 0 -12 6l-363 420q-12 12 -12 20zM416 434q0 9 12 21l363 419q7 7 12 7q7 0 11.5 -5.5t4.5 -11.5q0 -8 -8 -16l-358 -414l358 -414q8 -8 8 -16 q0 -16 -16 -16q-6 0 -12 6l-363 420q-12 12 -12 20z" />
<glyph unicode="&#xac;" horiz-adv-x="1153" d="M117 602q0 16 16 16h885q16 0 16 -16v-487q0 -7 -5 -12t-11 -5t-11.5 5t-5.5 12v471h-868q-16 0 -16 16z" />
<glyph unicode="&#xad;" horiz-adv-x="577" d="M84 516q0 16 16 16h375q7 0 12 -5t5 -11t-5 -11t-12 -5h-375q-16 0 -16 16z" />
<glyph unicode="&#xae;" horiz-adv-x="772" d="M86 1096q0 156 78 233.5t221 77.5q146 0 223.5 -77t77.5 -234t-78 -235.5t-223 -78.5q-143 0 -221 78.5t-78 235.5zM117 1096q0 -285 268 -285q270 0 270 285q0 282 -270 282q-268 0 -268 -282zM279 950v283q0 9 6.5 15.5t15.5 6.5h109q45 0 69.5 -26.5t24.5 -67.5 q0 -38 -23.5 -64.5t-60.5 -29.5l69 -100q9 -12 9 -17q0 -6 -5.5 -11t-11.5 -5q-9 0 -14 8l-84 125h-72v-117q0 -16 -16 -16t-16 16zM311 1098h99q27 0 43 18.5t16 44.5q0 28 -16 46t-43 18h-99v-127z" />
<glyph unicode="&#xaf;" horiz-adv-x="782" d="M160 1161q0 6 4.5 11.5t11.5 5.5h430q7 0 12 -5.5t5 -11.5t-5 -11t-12 -5h-430q-16 0 -16 16z" />
<glyph unicode="&#xb0;" horiz-adv-x="729" d="M86 1126q0 117 82 199t199 82t198.5 -82t81.5 -199t-81.5 -198.5t-198.5 -81.5t-199 81.5t-82 198.5zM119 1124q0 -102 70.5 -174.5t175.5 -72.5t177 72.5t72 174.5q0 103 -72.5 177.5t-176.5 74.5t-175 -74.5t-71 -177.5z" />
<glyph unicode="&#xb1;" horiz-adv-x="909" d="M0 16q0 6 4.5 11.5t11.5 5.5h877q7 0 11.5 -5.5t4.5 -11.5q0 -16 -16 -16h-877q-16 0 -16 16zM0 627q0 16 16 16h422v432q0 7 5.5 12t11.5 5t11 -5t5 -12v-432h422q16 0 16 -16q0 -6 -4.5 -11.5t-11.5 -5.5h-422v-430q0 -16 -16 -16q-6 0 -11.5 4.5t-5.5 11.5v430h-422 q-7 0 -11.5 5.5t-4.5 11.5z" />
<glyph unicode="&#xb2;" horiz-adv-x="530" d="M59 885q0 49 20.5 88.5t53 66.5t71.5 51t78.5 47t72 47.5t53 59.5t20.5 78q0 61 -40.5 102t-125.5 41q-61 0 -96.5 -23.5t-52.5 -74.5q-4 -12 -17 -12q-14 0 -14 14q0 4 2 10q40 115 178 115q97 0 148 -47.5t51 -124.5q0 -46 -20.5 -84t-53 -65.5t-71.5 -52t-78.5 -47.5 t-72 -47t-53 -57t-20.5 -71h352q15 0 15 -14q0 -6 -4.5 -10.5t-10.5 -4.5h-370q-6 0 -10.5 4.5t-4.5 10.5z" />
<glyph unicode="&#xb3;" horiz-adv-x="520" d="M47 971q0 14 14 14q8 0 15 -10q56 -88 166 -88q188 0 188 160q0 75 -42 118t-130 43h-47q-14 0 -14 15q0 6 6 12l188 219h-297q-14 0 -14 14q0 15 14 15h326q14 0 14 -15q0 -8 -6 -14l-188 -217h22q104 0 152.5 -54.5t48.5 -135.5q0 -91 -51.5 -140t-169.5 -49 q-69 0 -117.5 28.5t-73.5 69.5q-4 8 -4 15z" />
<glyph unicode="&#xb4;" horiz-adv-x="757" d="M258 1073q-10 11 0 21l207 243q14 18 31 4q17 -15 0 -32l-217 -234q-10 -10 -21 -2z" />
<glyph unicode="&#xb5;" horiz-adv-x="1003" d="M143 -401v1329q0 7 5.5 12.5t13.5 5.5t13 -5t5 -13v-611q0 -309 322 -309q321 0 321 309v611q0 7 5.5 12.5t13.5 5.5t13 -5t5 -13v-592q0 -363 -358 -363q-128 0 -209.5 47.5t-112.5 124.5v-546q0 -8 -5.5 -13.5t-12.5 -5.5q-8 0 -13.5 6t-5.5 13z" />
<glyph unicode="&#xb6;" horiz-adv-x="888" d="M45 1057q0 132 94 226.5t226 94.5h421q7 0 12 -5t5 -11t-5 -11t-12 -5h-65v-830q0 -138 -27.5 -241.5t-73.5 -168t-115.5 -104.5t-144.5 -55t-170 -15q-66 0 -131 25q-12 6 -12 16q0 15 14 15q5 0 17 -4q55 -19 112 -19q147 0 222 110.5t75 299.5v360h-122 q-132 0 -226 94.5t-94 227.5zM356 -20q159 35 243.5 163.5t84.5 372.5v830h-160v-965q0 -147 -38 -244.5t-130 -156.5z" />
<glyph unicode="&#xb7;" horiz-adv-x="335" d="M131 614q0 41 35 41t35 -41q0 -39 -35 -39t-35 39z" />
<glyph unicode="&#xb8;" horiz-adv-x="645" d="M168 -406q0 15 14 15q6 0 15 -6q41 -29 98 -29q149 0 149 141q0 67 -39 98t-94 31q-24 0 -46.5 -5t-24.5 -5q-17 0 -17 19l8 147h29l-10 -139q28 10 61 10q79 0 121.5 -40t42.5 -116q0 -78 -45.5 -124t-134.5 -46q-36 0 -72 12.5t-49 24.5q-6 6 -6 12z" />
<glyph unicode="&#xb9;" horiz-adv-x="321" d="M29 1366q0 9 8 14l151 103q12 6 15 6q6 0 11 -5t5 -11v-592q0 -7 -5 -12t-11 -5t-11.5 5t-5.5 12v563l-129 -86q-9 -6 -14 -6q-6 0 -10 4.5t-4 9.5z" />
<glyph unicode="&#xba;" horiz-adv-x="681" d="M53 584q0 6 5 11t12 5h540q7 0 12 -5t5 -11t-5 -11.5t-12 -5.5h-540q-7 0 -12 5.5t-5 11.5zM63 1073q0 334 277 334q276 0 276 -334t-276 -334q-277 0 -277 334zM98 1073q0 -303 242 -303t242 303t-242 303t-242 -303z" />
<glyph unicode="&#xbb;" horiz-adv-x="950" d="M131 4q0 8 8 16l359 414l-359 414q-8 8 -8 16q0 6 4.5 11.5t11.5 5.5q6 0 13 -7l362 -419q13 -13 13 -21q0 -7 -13 -20l-362 -420q-6 -6 -13 -6q-16 0 -16 16zM418 4q0 8 8 16l358 414l-358 414q-8 8 -8 16q0 6 4.5 11.5t11.5 5.5q5 0 12 -7l363 -419q12 -12 12 -21 q0 -8 -12 -20l-363 -420q-6 -6 -12 -6q-16 0 -16 16z" />
<glyph unicode="&#xbc;" horiz-adv-x="960" d="M86 1278q0 9 8 14l152 103q12 6 14 6q6 0 11 -5.5t5 -11.5v-591q0 -7 -5 -12t-11 -5t-11 5t-5 12v563l-129 -86q-9 -6 -15 -6t-10 4.5t-4 9.5zM182 2q0 4 4 16l529 1362q6 15 18 15q7 0 13 -5.5t6 -13.5q0 -4 -4 -16l-529 -1362q-6 -14 -18 -14q-8 0 -13.5 5.5t-5.5 12.5 zM440 154q0 2 9 16l305 426q8 12 16 12q16 0 16 -16v-424h64q14 0 14 -14q0 -15 -14 -15h-64v-139q0 -16 -16 -16t-16 16v139h-299q-6 0 -10.5 4.5t-4.5 10.5zM483 168h271v377z" />
<glyph unicode="&#xbd;" horiz-adv-x="1044" d="M86 1278q0 9 8 14l152 103q12 6 14 6q6 0 11 -5.5t5 -11.5v-591q0 -7 -5 -12t-11 -5t-11 5t-5 12v563l-129 -86q-9 -6 -15 -6t-10 4.5t-4 9.5zM182 2q0 4 4 16l529 1362q6 15 18 15q7 0 13 -5.5t6 -13.5q0 -4 -4 -16l-529 -1362q-6 -14 -18 -14q-8 0 -13.5 5.5t-5.5 12.5 zM573 14q0 49 20.5 88.5t53 67t71.5 51.5t78.5 46.5t72 47.5t53 60t20.5 78q0 61 -40.5 102t-125.5 41q-61 0 -96.5 -23.5t-52.5 -74.5q-4 -13 -17 -13q-14 0 -14 15q0 4 2 10q40 115 178 115q97 0 148 -47.5t51 -124.5q0 -46 -20.5 -84t-53 -65.5t-71.5 -52t-78.5 -47.5 t-72 -47t-53 -57t-20.5 -71h352q6 0 10.5 -4.5t4.5 -10.5q0 -14 -15 -14h-370q-15 0 -15 14z" />
<glyph unicode="&#xbe;" horiz-adv-x="1071" d="M53 883q0 14 15 14q7 0 14 -10q56 -88 166 -88q188 0 188 159q0 75 -42 118.5t-130 43.5h-47q-14 0 -14 15q0 6 6 12l188 219h-297q-14 0 -14 14q0 15 14 15h326q14 0 14 -15q0 -8 -6 -14l-188 -217h22q104 0 152.5 -55t48.5 -136q0 -91 -51.5 -139.5t-169.5 -48.5 q-69 0 -117.5 28.5t-73.5 69.5q-4 8 -4 15zM293 2q0 4 4 16l528 1362q6 15 19 15q7 0 12.5 -5.5t5.5 -13.5q0 -4 -4 -16l-528 -1362q-6 -14 -19 -14q-7 0 -12.5 5t-5.5 13zM551 154q0 4 8 16l305 426q8 12 17 12q16 0 16 -16v-424h64q14 0 14 -14q0 -15 -14 -15h-64v-139 q0 -16 -16 -16q-6 0 -11.5 4.5t-5.5 11.5v139h-299q-14 0 -14 15zM594 168h270v377z" />
<glyph unicode="&#xbf;" horiz-adv-x="944" d="M96 -113q0 82 25.5 150t66 113.5t89.5 84t97.5 71.5t89 66t66 77t25.5 96q0 78 -51 129q-8 8 -8 18q0 8 5.5 13.5t12.5 5.5t18 -11q60 -60 60 -155q0 -57 -25.5 -105t-66 -83t-89.5 -68.5t-97.5 -71.5t-89 -81t-66 -107t-25.5 -142q0 -145 90 -232t258 -87t250 83.5 t82 239.5q0 8 5.5 13.5t12.5 5.5t13 -6t6 -13q0 -168 -91 -262t-278 -94q-182 0 -283.5 95t-101.5 257zM496 920q0 38 34 38q35 0 35 -38q0 -41 -35 -41q-34 0 -34 41z" />
<glyph unicode="&#xc0;" horiz-adv-x="1236" d="M63 0q0 4 3 10l538 1374q4 11 14 11q11 0 15 -11l538 -1374q3 -6 3 -10q0 -7 -6 -11.5t-13 -4.5q-12 0 -18 14l-179 457h-679l-179 -457q-6 -14 -18 -14q-7 0 -13 4.5t-6 11.5zM291 487h655l-328 842zM451 1724q-18 18 0 33q16 13 30 -4l207 -244q10 -10 0 -20 q-10 -8 -20 2z" />
<glyph unicode="&#xc1;" horiz-adv-x="1236" d="M63 0q0 4 3 10l538 1374q4 11 14 11q11 0 15 -11l538 -1374q3 -6 3 -10q0 -7 -6 -11.5t-13 -4.5q-12 0 -18 14l-179 457h-679l-179 -457q-6 -14 -18 -14q-7 0 -13 4.5t-6 11.5zM291 487h655l-328 842zM530 1489q-10 10 0 20l207 244q14 18 31 4q18 -15 0 -33l-217 -233 q-10 -10 -21 -2z" />
<glyph unicode="&#xc2;" horiz-adv-x="1236" d="M63 0q0 4 3 10l538 1374q4 11 14 11q11 0 15 -11l538 -1374q3 -6 3 -10q0 -7 -6 -11.5t-13 -4.5q-12 0 -18 14l-179 457h-679l-179 -457q-6 -14 -18 -14q-7 0 -13 4.5t-6 11.5zM291 487h655l-328 842zM383 1536q0 8 10 16l207 164q11 8 18 8q8 0 19 -8l207 -164 q10 -8 10 -16q0 -6 -5 -11t-11 -5q-9 0 -15 6l-205 164l-204 -164q-6 -6 -15 -6q-6 0 -11 5t-5 11z" />
<glyph unicode="&#xc3;" horiz-adv-x="1236" d="M63 0q0 4 3 10l538 1374q4 11 14 11q11 0 15 -11l538 -1374q3 -6 3 -10q0 -7 -6 -11.5t-13 -4.5q-12 0 -18 14l-179 457h-679l-179 -457q-6 -14 -18 -14q-7 0 -13 4.5t-6 11.5zM291 487h655l-328 842zM344 1532q0 6 4 14q41 88 139 88q47 0 92 -21.5t87.5 -43t83.5 -21.5 t64 17t42 53q8 16 21 16q16 0 16 -16q0 -6 -4 -14q-41 -88 -139 -88q-48 0 -93 21.5t-87.5 43t-82.5 21.5q-41 0 -64 -17t-42 -53q-8 -16 -21 -16q-16 0 -16 16z" />
<glyph unicode="&#xc4;" horiz-adv-x="1236" d="M63 0q0 4 3 10l538 1374q4 11 14 11q11 0 15 -11l538 -1374q3 -6 3 -10q0 -7 -6 -11.5t-13 -4.5q-12 0 -18 14l-179 457h-679l-179 -457q-6 -14 -18 -14q-7 0 -13 4.5t-6 11.5zM291 487h655l-328 842zM463 1565q0 17 7 24.5t24 7.5q30 0 30 -32q0 -33 -30 -33 q-31 0 -31 33zM713 1565q0 18 6.5 25t23.5 7q31 0 31 -32q0 -33 -31 -33q-17 0 -23.5 7.5t-6.5 25.5z" />
<glyph unicode="&#xc5;" horiz-adv-x="1236" d="M63 0q0 4 3 10l538 1374q4 11 14 11q11 0 15 -11l538 -1374q3 -6 3 -10q0 -7 -6 -11.5t-13 -4.5q-12 0 -18 14l-179 457h-679l-179 -457q-6 -14 -18 -14q-7 0 -13 4.5t-6 11.5zM291 487h655l-328 842zM414 1640q0 93 50.5 144t153.5 51t154 -51t51 -144t-51 -143.5 t-154 -50.5t-153.5 50.5t-50.5 143.5zM446 1640q0 -80 40.5 -121.5t131.5 -41.5q173 0 173 163q0 164 -173 164q-172 0 -172 -164z" />
<glyph unicode="&#xc6;" horiz-adv-x="1703" d="M23 2q0 6 8 18l829 1346q7 12 21 12h694q16 0 16 -16t-16 -16h-680v-635h535q7 0 11.5 -5.5t4.5 -11.5q0 -16 -16 -16h-535v-645h704q7 0 12 -5.5t5 -11.5t-5 -11t-12 -5h-722q-8 0 -13.5 5.5t-5.5 12.5v437h-516l-283 -459q-8 -12 -18 -12q-7 0 -12.5 5t-5.5 13z M360 487h498v809z" />
<glyph unicode="&#xc7;" horiz-adv-x="1288" d="M100 688q0 359 158.5 539t458.5 180q145 0 264.5 -55.5t189.5 -153.5q5 -8 5 -12q0 -8 -6 -13.5t-13 -5.5q-10 0 -16 9q-59 87 -175.5 142.5t-248.5 55.5q-285 0 -432.5 -173t-147.5 -513q0 -339 147.5 -511.5t432.5 -172.5q133 0 254 55.5t180 143.5q5 8 16 8 q8 0 13.5 -5.5t5.5 -12.5t-4 -13q-69 -97 -194 -153t-271 -56h-27l-8 -110q28 10 61 10q79 0 121.5 -40t42.5 -116q0 -78 -45.5 -124t-134.5 -46q-36 0 -72 12.5t-49 24.5q-6 6 -6 12q0 15 14 15q6 0 15 -6q41 -29 98 -29q150 0 150 141q0 67 -39.5 98t-94.5 31 q-24 0 -46.5 -5t-24.5 -5q-17 0 -17 19l7 120q-274 15 -418 194t-144 521z" />
<glyph unicode="&#xc8;" d="M195 18v1342q0 18 16 18h700q7 0 12 -5t5 -11t-5 -11t-12 -5h-680v-635h535q7 0 11.5 -5.5t4.5 -11.5q0 -16 -16 -16h-535v-645h705q7 0 11.5 -5.5t4.5 -11.5q0 -16 -16 -16h-725q-16 0 -16 18zM449 1724q-18 18 0 33q16 13 30 -4l207 -244q10 -10 0 -20q-10 -8 -20 2z " />
<glyph unicode="&#xc9;" d="M195 18v1342q0 18 16 18h700q7 0 12 -5t5 -11t-5 -11t-12 -5h-680v-635h535q7 0 11.5 -5.5t4.5 -11.5q0 -16 -16 -16h-535v-645h705q7 0 11.5 -5.5t4.5 -11.5q0 -16 -16 -16h-725q-16 0 -16 18zM465 1489q-10 10 0 20l207 244q14 17 30 4q18 -15 0 -33l-217 -233 q-10 -10 -20 -2z" />
<glyph unicode="&#xca;" d="M195 18v1342q0 18 16 18h700q7 0 12 -5t5 -11t-5 -11t-12 -5h-680v-635h535q7 0 11.5 -5.5t4.5 -11.5q0 -16 -16 -16h-535v-645h705q7 0 11.5 -5.5t4.5 -11.5q0 -16 -16 -16h-725q-16 0 -16 18zM340 1536q0 8 10 16l207 164q11 8 18 8q8 0 19 -8l207 -164q10 -8 10 -16 q0 -6 -5 -11t-11 -5q-9 0 -15 6l-205 164l-204 -164q-6 -6 -15 -6q-6 0 -11 5t-5 11z" />
<glyph unicode="&#xcb;" horiz-adv-x="1038" d="M195 18v1342q0 18 16 18h700q7 0 12 -5t5 -11t-5 -11t-12 -5h-680v-635h535q7 0 11.5 -5.5t4.5 -11.5q0 -16 -16 -16h-535v-645h705q7 0 11.5 -5.5t4.5 -11.5q0 -16 -16 -16h-725q-16 0 -16 18zM420 1565q0 17 7 24.5t24 7.5q30 0 30 -32q0 -33 -30 -33q-31 0 -31 33z M670 1565q0 18 6.5 25t23.5 7q31 0 31 -32q0 -33 -31 -33q-17 0 -23.5 7.5t-6.5 25.5z" />
<glyph unicode="&#xcc;" horiz-adv-x="434" d="M39 1724q-18 18 0 33q17 14 31 -4l206 -244q10 -10 0 -20q-10 -8 -20 2zM184 2v1374q0 8 6 13.5t13 5.5t12.5 -5.5t5.5 -13.5v-1374q0 -8 -5.5 -13t-12.5 -5q-8 0 -13.5 5.5t-5.5 12.5z" />
<glyph unicode="&#xcd;" horiz-adv-x="425" d="M156 1489q-10 10 0 20l206 244q14 18 31 4q18 -15 0 -33l-217 -233q-10 -10 -20 -2zM195 2v1374q0 8 5.5 13.5t12.5 5.5t12.5 -5.5t5.5 -13.5v-1374q0 -8 -5.5 -13t-12.5 -5t-12.5 5t-5.5 13z" />
<glyph unicode="&#xce;" horiz-adv-x="425" d="M-23 1534q0 8 11 16l207 164q11 8 18 8t18 -8l207 -164q11 -8 11 -16q0 -6 -5.5 -11t-11.5 -5q-8 0 -14 6l-205 164l-205 -164q-6 -6 -14 -6q-6 0 -11.5 5t-5.5 11zM195 2v1374q0 8 5.5 13.5t12.5 5.5t12.5 -5.5t5.5 -13.5v-1374q0 -8 -5.5 -13t-12.5 -5t-12.5 5t-5.5 13 z" />
<glyph unicode="&#xcf;" horiz-adv-x="425" d="M53 1565q0 17 7 24.5t24 7.5q31 0 31 -32q0 -33 -31 -33t-31 33zM195 2v1374q0 8 5.5 13.5t12.5 5.5t12.5 -5.5t5.5 -13.5v-1374q0 -8 -5.5 -13t-12.5 -5t-12.5 5t-5.5 13zM303 1565q0 17 7 24.5t24 7.5q31 0 31 -32q0 -33 -31 -33t-31 33z" />
<glyph unicode="&#xd0;" horiz-adv-x="1234" d="M59 717q0 6 5 11t12 5h119v627q0 8 5.5 13t12.5 5h301q150 0 262.5 -37t194 -117.5t123 -214.5t41.5 -321t-41.5 -320.5t-123 -213.5t-193.5 -117t-263 -37h-301q-7 0 -12.5 5t-5.5 13v682h-119q-7 0 -12 5.5t-5 11.5zM231 33h283q141 0 246.5 35t182.5 111.5t116 203.5 t39 305q0 176 -39 303.5t-116 205t-182.5 113.5t-246.5 36h-283v-613h490q16 0 16 -16q0 -6 -4.5 -11.5t-11.5 -5.5h-490v-667z" />
<glyph unicode="&#xd1;" horiz-adv-x="1269" d="M170 2v1374q0 8 5.5 13.5t12.5 5.5q10 0 17 -11l848 -1318v1310q0 8 5.5 13.5t12.5 5.5t13 -5.5t6 -13.5v-1374q0 -7 -5.5 -12.5t-13.5 -5.5q-11 0 -18 10l-846 1319v-1311q0 -7 -5.5 -12.5t-13.5 -5.5t-13 5t-5 13zM379 1532q0 6 4 14q41 88 139 88q47 0 92 -21.5 t87 -43t83 -21.5t65 17t42 53q8 16 20 16q7 0 12 -5t5 -11t-4 -14q-41 -88 -140 -88q-47 0 -92 21.5t-87.5 43t-82.5 21.5q-41 0 -64 -17t-42 -53q-8 -16 -21 -16q-16 0 -16 16z" />
<glyph unicode="&#xd2;" horiz-adv-x="1433" d="M100 688q0 359 158.5 539t458.5 180t458 -180t158 -539q0 -358 -158 -537.5t-458 -179.5t-458.5 179.5t-158.5 537.5zM137 688q0 -339 147.5 -511.5t432.5 -172.5t432 172.5t147 511.5q0 340 -147 513t-432 173t-432.5 -173t-147.5 -513zM575 1724q-18 18 0 33 q17 14 31 -4l207 -244q10 -10 0 -20q-10 -8 -20 2z" />
<glyph unicode="&#xd3;" horiz-adv-x="1433" d="M100 688q0 359 158.5 539t458.5 180t458 -180t158 -539q0 -358 -158 -537.5t-458 -179.5t-458.5 179.5t-158.5 537.5zM137 688q0 -339 147.5 -511.5t432.5 -172.5t432 172.5t147 511.5q0 340 -147 513t-432 173t-432.5 -173t-147.5 -513zM649 1489q-10 10 0 20l207 244 q14 18 31 4q18 -15 0 -33l-217 -233q-10 -10 -21 -2z" />
<glyph unicode="&#xd4;" horiz-adv-x="1433" d="M100 688q0 359 158.5 539t458.5 180t458 -180t158 -539q0 -358 -158 -537.5t-458 -179.5t-458.5 179.5t-158.5 537.5zM137 688q0 -339 147.5 -511.5t432.5 -172.5t432 172.5t147 511.5q0 340 -147 513t-432 173t-432.5 -173t-147.5 -513zM481 1536q0 8 11 16l206 164 q11 8 19 8q7 0 18 -8l207 -164q10 -8 10 -16q0 -6 -5 -11t-11 -5q-8 0 -14 6l-205 164l-205 -164q-6 -6 -14 -6q-6 0 -11.5 5t-5.5 11z" />
<glyph unicode="&#xd5;" horiz-adv-x="1433" d="M100 688q0 359 158.5 539t458.5 180t458 -180t158 -539q0 -358 -158 -537.5t-458 -179.5t-458.5 179.5t-158.5 537.5zM137 688q0 -339 147.5 -511.5t432.5 -172.5t432 172.5t147 511.5q0 340 -147 513t-432 173t-432.5 -173t-147.5 -513zM442 1532q0 6 4 14q41 88 140 88 q47 0 92 -21.5t87 -43t83 -21.5t64 17t42 53q8 16 21 16q16 0 16 -16q0 -6 -4 -14q-41 -88 -139 -88q-47 0 -92 21.5t-87.5 43t-82.5 21.5q-41 0 -65 -17t-42 -53q-8 -16 -20 -16q-7 0 -12 5t-5 11z" />
<glyph unicode="&#xd6;" horiz-adv-x="1433" d="M100 688q0 359 158.5 539t458.5 180t458 -180t158 -539q0 -358 -158 -537.5t-458 -179.5t-458.5 179.5t-158.5 537.5zM137 688q0 -339 147.5 -511.5t432.5 -172.5t432 172.5t147 511.5q0 340 -147 513t-432 173t-432.5 -173t-147.5 -513zM567 1565q0 17 7 24.5t24 7.5 q31 0 31 -32q0 -33 -31 -33t-31 33zM817 1565q0 17 7 24.5t24 7.5q31 0 31 -32q0 -33 -31 -33t-31 33z" />
<glyph unicode="&#xd7;" horiz-adv-x="702" d="M0 119q0 9 8 14l318 313l-318 314q-8 5 -8 14q0 8 5.5 13.5t12.5 5.5q8 0 15 -7l317 -315l320 315q7 7 14 7t12.5 -5.5t5.5 -13.5q0 -9 -8 -14l-317 -314l317 -313q8 -5 8 -14q0 -8 -5.5 -13.5t-12.5 -5.5q-8 0 -14 6l-320 314l-317 -314q-6 -6 -15 -6q-7 0 -12.5 5.5 t-5.5 13.5z" />
<glyph unicode="&#xd8;" horiz-adv-x="1433" d="M100 688q0 359 158.5 539t458.5 180q269 0 426 -145l125 157q6 8 16 8q14 0 14 -14q0 -8 -6 -14l-127 -162q168 -180 168 -549q0 -358 -158 -537.5t-458 -179.5q-274 0 -428 148l-127 -162q-6 -6 -15 -6q-14 0 -14 14q0 9 6 15l127 161q-166 181 -166 547zM137 688 q0 -343 152 -518l831 1061q-146 143 -403 143q-285 0 -432.5 -173t-147.5 -513zM311 147q143 -143 406 -143q285 0 432 172.5t147 511.5q0 344 -153 520z" />
<glyph unicode="&#xd9;" horiz-adv-x="1280" d="M195 381v995q0 8 5.5 13.5t12.5 5.5t12.5 -5.5t5.5 -13.5v-995q0 -66 10 -118.5t38.5 -102.5t74.5 -83t122 -53t177 -20t176.5 20t120.5 53t72.5 83.5t37 102.5t9.5 118v995q0 8 5.5 13.5t12.5 5.5t13 -5.5t6 -13.5v-995q0 -70 -10.5 -126.5t-40.5 -111t-79.5 -91 t-131 -59t-191.5 -22.5t-192 22.5t-132 59t-81 91t-42 111t-11 126.5zM537 1724q-18 18 0 33q16 13 30 -4l207 -244q10 -10 0 -20q-10 -8 -20 2z" />
<glyph unicode="&#xda;" horiz-adv-x="1280" d="M195 381v995q0 8 5.5 13.5t12.5 5.5t12.5 -5.5t5.5 -13.5v-995q0 -66 10 -118.5t38.5 -102.5t74.5 -83t122 -53t177 -20t176.5 20t120.5 53t72.5 83.5t37 102.5t9.5 118v995q0 8 5.5 13.5t12.5 5.5t13 -5.5t6 -13.5v-995q0 -70 -10.5 -126.5t-40.5 -111t-79.5 -91 t-131 -59t-191.5 -22.5t-192 22.5t-132 59t-81 91t-42 111t-11 126.5zM561 1489q-10 10 0 20l207 244q14 18 31 4q18 -15 0 -33l-217 -233q-10 -10 -21 -2z" />
<glyph unicode="&#xdb;" horiz-adv-x="1280" d="M195 381v995q0 8 5.5 13.5t12.5 5.5t12.5 -5.5t5.5 -13.5v-995q0 -66 10 -118.5t38.5 -102.5t74.5 -83t122 -53t177 -20t176.5 20t120.5 53t72.5 83.5t37 102.5t9.5 118v995q0 8 5.5 13.5t12.5 5.5t13 -5.5t6 -13.5v-995q0 -70 -10.5 -126.5t-40.5 -111t-79.5 -91 t-131 -59t-191.5 -22.5t-192 22.5t-132 59t-81 91t-42 111t-11 126.5zM426 1536q0 8 10 16l207 164q11 8 19 8q7 0 18 -8l207 -164q10 -8 10 -16q0 -6 -5 -11t-11 -5q-9 0 -15 6l-204 164l-205 -164q-6 -6 -15 -6q-6 0 -11 5t-5 11z" />
<glyph unicode="&#xdc;" horiz-adv-x="1280" d="M195 381v995q0 8 5.5 13.5t12.5 5.5t12.5 -5.5t5.5 -13.5v-995q0 -66 10 -118.5t38.5 -102.5t74.5 -83t122 -53t177 -20t176.5 20t120.5 53t72.5 83.5t37 102.5t9.5 118v995q0 8 5.5 13.5t12.5 5.5t13 -5.5t6 -13.5v-995q0 -70 -10.5 -126.5t-40.5 -111t-79.5 -91 t-131 -59t-191.5 -22.5t-192 22.5t-132 59t-81 91t-42 111t-11 126.5zM496 1565q0 18 6.5 25t23.5 7q31 0 31 -32q0 -33 -31 -33q-17 0 -23.5 7.5t-6.5 25.5zM745 1565q0 17 7 24.5t24 7.5q31 0 31 -32q0 -33 -31 -33t-31 33z" />
<glyph unicode="&#xdd;" d="M57 1376q0 8 5.5 13.5t13.5 5.5q9 0 16 -11l428 -679l428 679q7 11 17 11q7 0 12.5 -5.5t5.5 -13.5q0 -6 -4 -12l-440 -698v-664q0 -7 -5.5 -12.5t-13.5 -5.5t-13 5t-5 13v664l-441 698q-4 6 -4 12zM444 1489q-10 10 0 20l207 244q14 18 31 4q18 -15 0 -33l-217 -233 q-10 -10 -21 -2z" />
<glyph unicode="&#xde;" horiz-adv-x="1093" d="M195 2v1374q0 8 5.5 13.5t12.5 5.5t12.5 -5.5t5.5 -13.5v-274h396q168 0 267 -98t99 -287q0 -187 -99 -286t-267 -99h-396v-330q0 -8 -5.5 -13t-12.5 -5t-12.5 5t-5.5 13zM231 365h396q154 0 241.5 95t87.5 257q0 165 -86.5 258.5t-242.5 93.5h-396v-704z" />
<glyph unicode="&#xdf;" horiz-adv-x="1064" d="M164 2v1059q0 157 73.5 249.5t225.5 92.5q113 0 185.5 -67t72.5 -165q0 -51 -18 -92.5t-47.5 -69.5t-64.5 -52.5t-70 -47.5t-64.5 -47t-47.5 -58t-18 -75q0 -57 32.5 -98.5t84.5 -66.5t115 -46t126 -44t115 -52t84.5 -78.5t32.5 -116.5q0 -125 -89.5 -189.5t-238.5 -64.5 q-114 0 -198.5 42t-137.5 98q-6 6 -6 12t4.5 11t12.5 5q6 0 14 -8q123 -127 311 -127q134 0 212.5 56t78.5 165q0 61 -32.5 106t-84.5 71.5t-115 48t-126 43.5t-115 49.5t-84.5 74t-32.5 109.5q0 46 18 83.5t47.5 63t64.5 49t70 46.5t64.5 49.5t47.5 65t18 85.5 q0 90 -63.5 144.5t-157.5 54.5q-130 0 -196 -80t-66 -229v-1059q0 -7 -5.5 -12.5t-13.5 -5.5t-13 5t-5 13z" />
<glyph unicode="&#xe0;" horiz-adv-x="946" d="M82 254q0 133 93 204.5t251 71.5h342v107q0 138 -81 213.5t-224 75.5q-206 0 -293 -148q-6 -12 -18 -12q-6 0 -11.5 5t-5.5 11q0 8 6 17q98 159 322 159q166 0 253 -86t87 -235v-635q0 -16 -19 -16q-16 0 -16 16v150q-40 -87 -133 -132t-213 -45q-166 0 -253 76.5 t-87 202.5zM119 254q0 -115 78 -180.5t225 -65.5q69 0 129.5 16.5t110 48.5t78 86t28.5 124v217h-342q-139 0 -223 -65t-84 -181zM348 1309q-17 17 0 32q17 14 31 -4l207 -243q10 -10 0 -21q-11 -8 -21 2z" />
<glyph unicode="&#xe1;" horiz-adv-x="946" d="M82 254q0 133 93 204.5t251 71.5h342v107q0 138 -81 213.5t-224 75.5q-206 0 -293 -148q-6 -12 -18 -12q-6 0 -11.5 5t-5.5 11q0 8 6 17q98 159 322 159q166 0 253 -86t87 -235v-635q0 -16 -19 -16q-16 0 -16 16v150q-40 -87 -133 -132t-213 -45q-166 0 -253 76.5 t-87 202.5zM119 254q0 -115 78 -180.5t225 -65.5q69 0 129.5 16.5t110 48.5t78 86t28.5 124v217h-342q-139 0 -223 -65t-84 -181zM387 1073q-11 11 0 21l207 243q14 18 31 4q17 -15 0 -32l-217 -234q-10 -10 -21 -2z" />
<glyph unicode="&#xe2;" horiz-adv-x="946" d="M82 254q0 133 93 204.5t251 71.5h342v107q0 138 -81 213.5t-224 75.5q-206 0 -293 -148q-6 -12 -18 -12q-6 0 -11.5 5t-5.5 11q0 8 6 17q98 159 322 159q166 0 253 -86t87 -235v-635q0 -16 -19 -16q-16 0 -16 16v150q-40 -87 -133 -132t-213 -45q-166 0 -253 76.5 t-87 202.5zM119 254q0 -115 78 -180.5t225 -65.5q69 0 129.5 16.5t110 48.5t78 86t28.5 124v217h-342q-139 0 -223 -65t-84 -181zM242 1143q0 9 10 16l207 164q11 8 18 8q8 0 19 -8l206 -164q11 -8 11 -16q0 -6 -5.5 -11.5t-11.5 -5.5q-7 0 -14 7l-205 163l-205 -163 q-7 -7 -14 -7q-6 0 -11 5.5t-5 11.5z" />
<glyph unicode="&#xe3;" horiz-adv-x="946" d="M82 254q0 133 93 204.5t251 71.5h342v107q0 138 -81 213.5t-224 75.5q-206 0 -293 -148q-6 -12 -18 -12q-6 0 -11.5 5t-5.5 11q0 8 6 17q98 159 322 159q166 0 253 -86t87 -235v-635q0 -16 -19 -16q-16 0 -16 16v150q-40 -87 -133 -132t-213 -45q-166 0 -253 76.5 t-87 202.5zM119 254q0 -115 78 -180.5t225 -65.5q69 0 129.5 16.5t110 48.5t78 86t28.5 124v217h-342q-139 0 -223 -65t-84 -181zM186 1130q0 7 4 15q41 88 140 88q47 0 92 -21.5t87 -43t83 -21.5t64 17t42 53q8 16 21 16q16 0 16 -16q0 -7 -4 -15q-41 -88 -139 -88 q-48 0 -92.5 21.5t-87 43t-82.5 21.5q-41 0 -65 -17t-42 -53q-8 -16 -20 -16q-7 0 -12 5t-5 11z" />
<glyph unicode="&#xe4;" horiz-adv-x="946" d="M82 254q0 133 93 204.5t251 71.5h342v107q0 138 -81 213.5t-224 75.5q-206 0 -293 -148q-6 -12 -18 -12q-6 0 -11.5 5t-5.5 11q0 8 6 17q98 159 322 159q166 0 253 -86t87 -235v-635q0 -16 -19 -16q-16 0 -16 16v150q-40 -87 -133 -132t-213 -45q-166 0 -253 76.5 t-87 202.5zM119 254q0 -115 78 -180.5t225 -65.5q69 0 129.5 16.5t110 48.5t78 86t28.5 124v217h-342q-139 0 -223 -65t-84 -181zM317 1161q0 33 31 33t31 -33t-31 -33t-31 33zM567 1161q0 33 31 33t31 -33t-31 -33t-31 33z" />
<glyph unicode="&#xe5;" horiz-adv-x="946" d="M82 254q0 133 93 204.5t251 71.5h342v107q0 138 -81 213.5t-224 75.5q-206 0 -293 -148q-6 -12 -18 -12q-6 0 -11.5 5t-5.5 11q0 8 6 17q98 159 322 159q166 0 253 -86t87 -235v-635q0 -16 -19 -16q-16 0 -16 16v150q-40 -87 -133 -132t-213 -45q-166 0 -253 76.5 t-87 202.5zM119 254q0 -115 78 -180.5t225 -65.5q69 0 129.5 16.5t110 48.5t78 86t28.5 124v217h-342q-139 0 -223 -65t-84 -181zM268 1229q0 93 51 143.5t154 50.5t154 -50.5t51 -143.5t-51 -144t-154 -51t-154 51t-51 144zM301 1229q0 -164 172 -164t172 164t-172 164 t-172 -164z" />
<glyph unicode="&#xe6;" horiz-adv-x="1630" d="M82 248q0 130 93 200t251 70h342v119q0 138 -81 213.5t-224 75.5q-114 0 -181 -42t-108 -112q-6 -12 -18 -12q-6 0 -11.5 5t-5.5 11q0 8 6 17q102 165 318 165q146 0 230.5 -67t103.5 -186q40 129 133 191t246 62q97 0 169 -29t110 -70.5t60.5 -100t28.5 -103t6 -94.5 q0 -76 -39 -76h-706q0 -479 371 -479q174 0 311 100q13 9 16 9q6 0 11.5 -5t5.5 -12q0 -5 -7 -12q-139 -113 -337 -113q-160 0 -256.5 81t-122.5 216q-20 -131 -113 -213t-262 -82q-166 0 -253 74.5t-87 198.5zM119 248q0 -112 78 -176t225 -64q69 0 129.5 18.5t110 56 t78 101t28.5 146.5v157h-342q-139 0 -223 -62.5t-84 -176.5zM807 518h706q3 33 3 49q0 54 -8 101t-30.5 96t-59 83.5t-98.5 56.5t-144 22q-185 0 -277 -101t-92 -307z" />
<glyph unicode="&#xe7;" horiz-adv-x="907" d="M92 465q0 248 104 370.5t304 122.5q109 0 180.5 -34.5t107.5 -75.5q9 -9 9 -14q0 -6 -5 -11.5t-12 -5.5q-8 0 -14 6q-103 103 -266 103q-371 0 -371 -461q0 -459 371 -459q151 0 280 103q9 6 15 6q7 0 11.5 -5.5t4.5 -11.5q0 -8 -10 -16q-137 -109 -301 -109q-25 0 -35 2 l-8 -114q28 10 61 10q79 0 121.5 -40t42.5 -116q0 -78 -45.5 -124t-134.5 -46q-36 0 -72 12.5t-49 24.5q-6 6 -6 12q0 15 14 15q5 0 14 -6q41 -29 99 -29q149 0 149 141q0 67 -39 98t-94 31q-24 0 -47 -5t-25 -5q-16 0 -16 19l6 124q-344 35 -344 488z" />
<glyph unicode="&#xe8;" horiz-adv-x="954" d="M92 467q0 491 408 491q97 0 169 -28.5t110 -69t60.5 -98t28.5 -101.5t6 -94q0 -43 -6 -80q-5 -24 -32 -24h-707q0 -457 371 -457q174 0 311 100q13 9 16 9q6 0 11.5 -5t5.5 -12q0 -6 -6 -12q-139 -113 -338 -113q-408 0 -408 494zM131 496h707q2 55 2 71q0 54 -8 101 t-30.5 96t-59 83.5t-98.5 56.5t-144 22q-183 0 -276 -110.5t-93 -319.5zM360 1309q-17 17 0 32q17 14 31 -4l207 -243q10 -10 0 -21q-10 -8 -20 2z" />
<glyph unicode="&#xe9;" horiz-adv-x="954" d="M92 467q0 491 408 491q97 0 169 -28.5t110 -69t60.5 -98t28.5 -101.5t6 -94q0 -43 -6 -80q-5 -24 -32 -24h-707q0 -457 371 -457q174 0 311 100q13 9 16 9q6 0 11.5 -5t5.5 -12q0 -6 -6 -12q-139 -113 -338 -113q-408 0 -408 494zM131 496h707q2 55 2 71q0 54 -8 101 t-30.5 96t-59 83.5t-98.5 56.5t-144 22q-183 0 -276 -110.5t-93 -319.5zM422 1073q-10 11 0 21l207 243q14 17 30 4q17 -15 0 -32l-217 -234q-10 -10 -20 -2z" />
<glyph unicode="&#xea;" horiz-adv-x="954" d="M92 467q0 491 408 491q97 0 169 -28.5t110 -69t60.5 -98t28.5 -101.5t6 -94q0 -43 -6 -80q-5 -24 -32 -24h-707q0 -457 371 -457q174 0 311 100q13 9 16 9q6 0 11.5 -5t5.5 -12q0 -6 -6 -12q-139 -113 -338 -113q-408 0 -408 494zM131 496h707q2 55 2 71q0 54 -8 101 t-30.5 96t-59 83.5t-98.5 56.5t-144 22q-183 0 -276 -110.5t-93 -319.5zM274 1143q0 8 11 16l207 164q11 8 18 8t18 -8l207 -164q10 -8 10 -16q0 -6 -5 -11.5t-11 -5.5q-7 0 -14 7l-205 163l-205 -163q-7 -7 -14 -7q-6 0 -11.5 5.5t-5.5 11.5z" />
<glyph unicode="&#xeb;" horiz-adv-x="954" d="M92 467q0 491 408 491q97 0 169 -28.5t110 -69t60.5 -98t28.5 -101.5t6 -94q0 -43 -6 -80q-5 -24 -32 -24h-707q0 -457 371 -457q174 0 311 100q13 9 16 9q6 0 11.5 -5t5.5 -12q0 -6 -6 -12q-139 -113 -338 -113q-408 0 -408 494zM131 496h707q2 55 2 71q0 54 -8 101 t-30.5 96t-59 83.5t-98.5 56.5t-144 22q-183 0 -276 -110.5t-93 -319.5zM354 1161q0 33 31 33t31 -33t-31 -33t-31 33zM604 1161q0 33 31 33t31 -33t-31 -33t-31 33z" />
<glyph unicode="&#xec;" horiz-adv-x="364" d="M2 1309q-17 17 0 32q17 14 31 -4l207 -243q10 -10 0 -21q-11 -8 -21 2zM164 2v926q0 8 5 13t13 5t13.5 -5.5t5.5 -12.5v-926q0 -7 -5.5 -12.5t-13.5 -5.5t-13 5t-5 13z" />
<glyph unicode="&#xed;" horiz-adv-x="364" d="M133 1073q-11 11 0 21l207 243q14 18 31 4q17 -15 0 -32l-217 -234q-10 -10 -21 -2zM164 2v926q0 8 5 13t13 5t13.5 -5.5t5.5 -12.5v-926q0 -7 -5.5 -12.5t-13.5 -5.5t-13 5t-5 13z" />
<glyph unicode="&#xee;" horiz-adv-x="364" d="M-55 1143q0 9 10 16l207 164q11 8 18 8q8 0 19 -8l207 -164q10 -7 10 -16q0 -6 -5.5 -11.5t-11.5 -5.5q-7 0 -14 7l-205 163l-205 -163q-7 -7 -14 -7q-6 0 -11 5.5t-5 11.5zM164 2v926q0 8 5 13t13 5t13.5 -5.5t5.5 -12.5v-926q0 -7 -5.5 -12.5t-13.5 -5.5t-13 5t-5 13z " />
<glyph unicode="&#xef;" horiz-adv-x="364" d="M25 1161q0 18 6.5 25.5t23.5 7.5q31 0 31 -33t-31 -33q-17 0 -23.5 7.5t-6.5 25.5zM164 2v926q0 8 5 13t13 5t13.5 -5.5t5.5 -12.5v-926q0 -7 -5.5 -12.5t-13.5 -5.5t-13 5t-5 13zM274 1161q0 33 31 33t31 -33t-31 -33t-31 33z" />
<glyph unicode="&#xf0;" horiz-adv-x="1005" d="M92 465q0 493 408 493q257 0 350 -196q-29 132 -94 262t-138 207l-157 -103l-10 -4q-7 0 -12 5.5t-5 11.5q0 10 12 18l150 96q-95 103 -229 170q-13 7 -13 19q0 14 15 14q8 0 16 -4q61 -30 125.5 -78.5t114.5 -99.5l127 82q6 4 12 4q7 0 10.5 -5t3.5 -9q0 -12 -10 -19 l-121 -78q129 -151 194.5 -335.5t65.5 -450.5q0 -492 -407 -492q-408 0 -408 492zM129 465q0 -459 371 -459q185 0 277.5 113.5t92.5 345.5q0 234 -92.5 347.5t-277.5 113.5q-371 0 -371 -461z" />
<glyph unicode="&#xf1;" horiz-adv-x="1024" d="M164 2v926q0 8 5 13t13 5t13.5 -5.5t5.5 -12.5v-185q12 38 37 74t64 68.5t99 52.5t131 20q84 0 147 -20t101 -52.5t61 -81t31.5 -98t8.5 -110.5v-594q0 -7 -5.5 -12.5t-13.5 -5.5t-13 5t-5 13v612q0 67 -14 119.5t-47.5 97t-97 69t-153.5 24.5q-80 0 -145 -27.5 t-104.5 -73t-60.5 -101.5t-21 -116v-604q0 -7 -5.5 -12.5t-13.5 -5.5t-13 5t-5 13zM254 1130q0 7 4 15q41 88 139 88q47 0 92 -21.5t87 -43t83 -21.5t65 17t42 53q8 16 20 16q7 0 12 -5t5 -11q0 -7 -4 -15q-41 -88 -140 -88q-47 0 -92 21.5t-87.5 43t-82.5 21.5 q-41 0 -64 -17t-42 -53q-8 -16 -21 -16q-16 0 -16 16z" />
<glyph unicode="&#xf2;" horiz-adv-x="999" d="M88 465q0 493 408 493q407 0 407 -493q0 -492 -407 -492q-408 0 -408 492zM125 465q0 -459 371 -459q185 0 277.5 113.5t92.5 345.5q0 234 -92.5 347.5t-277.5 113.5q-371 0 -371 -461zM385 1309q-17 17 0 32q17 14 31 -4l207 -243q11 -10 0 -21q-11 -8 -21 2z" />
<glyph unicode="&#xf3;" horiz-adv-x="999" d="M88 465q0 493 408 493q407 0 407 -493q0 -492 -407 -492q-408 0 -408 492zM125 465q0 -459 371 -459q185 0 277.5 113.5t92.5 345.5q0 234 -92.5 347.5t-277.5 113.5q-371 0 -371 -461zM434 1073q-10 11 0 21l207 243q14 18 31 4q17 -15 0 -32l-217 -234q-10 -10 -21 -2z " />
<glyph unicode="&#xf4;" horiz-adv-x="999" d="M88 465q0 493 408 493q407 0 407 -493q0 -492 -407 -492q-408 0 -408 492zM125 465q0 -459 371 -459q185 0 277.5 113.5t92.5 345.5q0 234 -92.5 347.5t-277.5 113.5q-371 0 -371 -461zM266 1143q0 9 10 16l207 164q11 8 19 8q7 0 18 -8l207 -164q10 -8 10 -16 q0 -6 -5 -11.5t-11 -5.5q-7 0 -14 7l-205 163l-205 -163q-7 -7 -14 -7q-6 0 -11.5 5.5t-5.5 11.5z" />
<glyph unicode="&#xf5;" horiz-adv-x="999" d="M88 465q0 493 408 493q407 0 407 -493q0 -492 -407 -492q-408 0 -408 492zM125 465q0 -459 371 -459q185 0 277.5 113.5t92.5 345.5q0 234 -92.5 347.5t-277.5 113.5q-371 0 -371 -461zM229 1130q0 7 4 15q41 88 140 88q47 0 92 -21.5t87 -43t83 -21.5t64 17t42 53 q8 16 21 16q16 0 16 -16q0 -7 -4 -15q-41 -88 -139 -88q-47 0 -92 21.5t-87.5 43t-82.5 21.5q-41 0 -65 -17t-42 -53q-8 -16 -20 -16q-7 0 -12 5t-5 11z" />
<glyph unicode="&#xf6;" horiz-adv-x="999" d="M88 465q0 493 408 493q407 0 407 -493q0 -492 -407 -492q-408 0 -408 492zM125 465q0 -459 371 -459q185 0 277.5 113.5t92.5 345.5q0 234 -92.5 347.5t-277.5 113.5q-371 0 -371 -461zM344 1161q0 33 31 33t31 -33t-31 -33t-31 33zM594 1161q0 33 31 33q30 0 30 -33 t-30 -33q-31 0 -31 33z" />
<glyph unicode="&#xf7;" horiz-adv-x="909" d="M0 446q0 6 4.5 11.5t11.5 5.5h877q7 0 11.5 -5.5t4.5 -11.5q0 -16 -16 -16h-877q-16 0 -16 16zM418 197q0 14 11 25t26 11t26 -11t11 -25q0 -17 -11 -28t-26 -11t-26 11t-11 28zM418 696q0 15 11 26t26 11t26 -11t11 -26t-11 -26t-26 -11t-26 11t-11 26z" />
<glyph unicode="&#xf8;" horiz-adv-x="999" d="M61 8q0 9 9 15l100 106q-78 122 -78 336q0 493 408 493q211 0 315 -137l107 115q6 6 14 6t13 -5t5 -13q0 -10 -8 -15l-110 -118q71 -118 71 -326q0 -492 -407 -492q-207 0 -310 127l-96 -104q-6 -6 -14 -6t-13.5 5.5t-5.5 12.5zM129 465q0 -193 66 -307l596 637 q-91 131 -291 131q-371 0 -371 -461zM215 127q90 -121 285 -121q185 0 277.5 113.5t92.5 345.5q0 189 -61 299z" />
<glyph unicode="&#xf9;" horiz-adv-x="1003" d="M143 336v592q0 7 5.5 12.5t13.5 5.5t13 -5t5 -13v-611q0 -309 322 -309q321 0 321 309v611q0 7 5.5 12.5t13.5 5.5t13 -5t5 -13v-592q0 -363 -358 -363q-359 0 -359 363zM367 1309q-17 17 0 32q16 13 30 -4l207 -243q10 -10 0 -21q-10 -8 -20 2z" />
<glyph unicode="&#xfa;" horiz-adv-x="1003" d="M143 336v592q0 7 5.5 12.5t13.5 5.5t13 -5t5 -13v-611q0 -309 322 -309q321 0 321 309v611q0 7 5.5 12.5t13.5 5.5t13 -5t5 -13v-592q0 -363 -358 -363q-359 0 -359 363zM432 1073q-10 11 0 21l207 243q14 18 31 4q17 -15 0 -32l-217 -234q-10 -10 -21 -2z" />
<glyph unicode="&#xfb;" horiz-adv-x="1003" d="M143 336v592q0 7 5.5 12.5t13.5 5.5t13 -5t5 -13v-611q0 -309 322 -309q321 0 321 309v611q0 7 5.5 12.5t13.5 5.5t13 -5t5 -13v-592q0 -363 -358 -363q-359 0 -359 363zM279 1143q0 9 10 16l207 164q11 8 18 8t18 -8l207 -164q11 -8 11 -16q0 -6 -5.5 -11.5t-11.5 -5.5 q-7 0 -14 7l-205 163l-205 -163q-7 -7 -14 -7q-6 0 -11 5.5t-5 11.5z" />
<glyph unicode="&#xfc;" horiz-adv-x="1003" d="M143 336v592q0 7 5.5 12.5t13.5 5.5t13 -5t5 -13v-611q0 -309 322 -309q321 0 321 309v611q0 7 5.5 12.5t13.5 5.5t13 -5t5 -13v-592q0 -363 -358 -363q-359 0 -359 363zM350 1161q0 33 31 33t31 -33t-31 -33t-31 33zM600 1161q0 33 31 33t31 -33t-31 -33t-31 33z" />
<glyph unicode="&#xfd;" horiz-adv-x="876" d="M35 -395q0 16 16 16q37 0 66.5 4t54.5 10t47 21t38.5 28t34.5 40t31 49t31 63.5t31 73t35 88.5l-367 915q-4 12 -4 15q0 7 5.5 12.5t13.5 5.5q12 0 18 -14l352 -891l353 891q6 14 18 14q7 0 12.5 -5t5.5 -13q0 -3 -4 -15l-424 -1056q-62 -154 -135 -211.5t-213 -57.5 q-7 0 -11.5 5.5t-4.5 11.5zM379 1073q-11 11 0 21l207 243q14 17 30 4q17 -15 0 -32l-217 -234q-10 -10 -20 -2z" />
<glyph unicode="&#xfe;" horiz-adv-x="1034" d="M164 -393v1833q0 8 5 13t13 5t13.5 -5.5t5.5 -12.5v-725q73 243 348 243q198 0 295.5 -121t97.5 -372t-97.5 -371.5t-295.5 -120.5q-60 0 -111.5 13.5t-86 35t-62.5 47.5t-43.5 52t-26.5 47.5t-15 35.5l-3 13v-610q0 -7 -5.5 -13t-13.5 -6q-7 0 -12.5 5.5t-5.5 13.5z M197 467q0 -228 90 -344.5t262 -116.5q177 0 266.5 116t89.5 343q0 461 -356 461q-172 0 -262 -115t-90 -344z" />
<glyph unicode="&#xff;" horiz-adv-x="876" d="M35 -395q0 16 16 16q37 0 66.5 4t54.5 10t47 21t38.5 28t34.5 40t31 49t31 63.5t31 73t35 88.5l-367 915q-4 12 -4 15q0 7 5.5 12.5t13.5 5.5q12 0 18 -14l352 -891l353 891q6 14 18 14q7 0 12.5 -5t5.5 -13q0 -3 -4 -15l-424 -1056q-62 -154 -135 -211.5t-213 -57.5 q-7 0 -11.5 5.5t-4.5 11.5zM281 1161q0 18 6.5 25.5t23.5 7.5q31 0 31 -33t-31 -33q-17 0 -23.5 7.5t-6.5 25.5zM530 1161q0 33 31 33t31 -33t-31 -33t-31 33z" />
<glyph unicode="&#x152;" horiz-adv-x="1923" d="M100 688q0 359 158.5 539t458.5 180q217 0 360 -94v47q0 18 17 18h700q16 0 16 -16t-16 -16h-680v-635h535q7 0 11.5 -5.5t4.5 -11.5q0 -16 -16 -16h-535v-645h705q7 0 11.5 -5.5t4.5 -11.5q0 -16 -16 -16h-725q-17 0 -17 18v48q-145 -95 -360 -95q-300 0 -458.5 179.5 t-158.5 537.5zM137 688q0 -339 147.5 -511.5t432.5 -172.5q226 0 360 102v1162q-139 106 -360 106q-285 0 -432.5 -173t-147.5 -513z" />
<glyph unicode="&#x153;" horiz-adv-x="1732" d="M92 465q0 493 408 493q156 0 256.5 -80.5t132.5 -236.5q27 155 128.5 236t260.5 81q97 0 169 -28.5t110.5 -69t61 -98t28.5 -101.5t6 -94q0 -43 -6 -80q-5 -24 -33 -24h-709q0 -230 97.5 -343.5t275.5 -113.5q174 0 311 100q13 9 17 9q6 0 11 -5t5 -12q0 -6 -6 -12 q-139 -113 -338 -113q-157 0 -255.5 80.5t-133.5 237.5q-35 -156 -134 -237t-255 -81q-408 0 -408 492zM129 465q0 -459 371 -459q370 0 370 461q-1 232 -93.5 345.5t-276.5 113.5q-371 0 -371 -461zM907 496h709q2 55 2 71q0 54 -8 101t-30.5 96t-59 83.5t-98.5 56.5 t-144 22q-183 0 -277 -110.5t-94 -319.5z" />
<glyph unicode="&#x178;" d="M53 1376q0 8 5.5 13.5t13.5 5.5q9 0 16 -11l428 -679l428 679q7 11 17 11q7 0 12.5 -5.5t5.5 -13.5q0 -6 -4 -12l-440 -698v-664q0 -7 -5.5 -12.5t-13.5 -5.5t-13 5t-5 13v664l-441 698q-4 6 -4 12zM362 1565q0 17 7 24.5t24 7.5q31 0 31 -32q0 -33 -31 -33t-31 33z M612 1565q0 17 7 24.5t24 7.5q31 0 31 -32q0 -33 -31 -33t-31 33z" />
<glyph unicode="&#x2c6;" horiz-adv-x="684" d="M106 1143q0 8 11 16l207 164q11 8 18 8t18 -8l207 -164q11 -8 11 -16q0 -6 -5.5 -11.5t-11.5 -5.5q-7 0 -14 7l-205 163l-205 -163q-7 -7 -14 -7q-6 0 -11.5 5.5t-5.5 11.5z" />
<glyph unicode="&#x2dc;" horiz-adv-x="774" d="M113 1130q0 7 4 15q41 88 139 88q47 0 92 -21.5t87 -43t83 -21.5t65 17t42 53q8 16 20 16q7 0 12 -5t5 -11q0 -5 -5 -15q-41 -88 -139 -88q-47 0 -92 21.5t-87.5 43t-82.5 21.5q-41 0 -64 -17t-42 -53q-8 -16 -21 -16q-16 0 -16 16z" />
<glyph unicode="&#x2000;" horiz-adv-x="917" />
<glyph unicode="&#x2001;" horiz-adv-x="1835" />
<glyph unicode="&#x2002;" horiz-adv-x="917" />
<glyph unicode="&#x2003;" horiz-adv-x="1835" />
<glyph unicode="&#x2004;" horiz-adv-x="611" />
<glyph unicode="&#x2005;" horiz-adv-x="458" />
<glyph unicode="&#x2006;" horiz-adv-x="305" />
<glyph unicode="&#x2007;" horiz-adv-x="305" />
<glyph unicode="&#x2008;" horiz-adv-x="229" />
<glyph unicode="&#x2009;" horiz-adv-x="367" />
<glyph unicode="&#x200a;" horiz-adv-x="101" />
<glyph unicode="&#x2010;" horiz-adv-x="577" d="M84 516q0 16 16 16h375q7 0 12 -5t5 -11t-5 -11t-12 -5h-375q-16 0 -16 16z" />
<glyph unicode="&#x2011;" horiz-adv-x="577" d="M84 516q0 16 16 16h375q7 0 12 -5t5 -11t-5 -11t-12 -5h-375q-16 0 -16 16z" />
<glyph unicode="&#x2012;" horiz-adv-x="577" d="M84 516q0 16 16 16h375q7 0 12 -5t5 -11t-5 -11t-12 -5h-375q-16 0 -16 16z" />
<glyph unicode="&#x2013;" horiz-adv-x="1196" d="M221 578q0 6 5 11t12 5h720q7 0 12 -5t5 -11t-5 -11.5t-12 -5.5h-720q-7 0 -12 5.5t-5 11.5z" />
<glyph unicode="&#x2014;" horiz-adv-x="1880" d="M221 578q0 6 5 11t12 5h1404q7 0 12 -5t5 -11t-5 -11.5t-12 -5.5h-1404q-7 0 -12 5.5t-5 11.5z" />
<glyph unicode="&#x2018;" horiz-adv-x="280" d="M109 1163q0 62 15 124.5t40 98.5q6 9 14 9q4 0 8 -4t4 -9q0 -4 -4 -12q-28 -43 -28 -106q0 -30 10 -60.5t10 -46.5q0 -41 -35 -41q-34 0 -34 47z" />
<glyph unicode="&#x2019;" horiz-adv-x="280" d="M109 1128q0 5 4 13q28 43 28 106q0 30 -10 60.5t-10 46.5q0 41 35 41q34 0 34 -47q0 -62 -15 -125t-40 -99q-5 -8 -14 -8q-5 0 -8.5 4t-3.5 8z" />
<glyph unicode="&#x201a;" horiz-adv-x="288" d="M115 -186q0 4 4 12q28 43 28 106q0 30 -10 60.5t-10 46.5q0 41 35 41t35 -47q0 -62 -15.5 -124t-40.5 -99q-6 -9 -14 -9q-4 0 -8 4t-4 9z" />
<glyph unicode="&#x201c;" horiz-adv-x="479" d="M109 1163q0 62 15 124.5t40 98.5q6 9 14 9q4 0 8 -4t4 -9q0 -4 -4 -12q-28 -43 -28 -106q0 -30 10 -60.5t10 -46.5q0 -41 -35 -41q-34 0 -34 47zM287 1163q0 62 15 124.5t40 98.5q6 9 14 9q4 0 8.5 -4.5t4.5 -8.5t-4 -12q-29 -45 -29 -106q0 -30 10 -60.5t10 -46.5 q0 -41 -34 -41q-35 0 -35 47z" />
<glyph unicode="&#x201d;" horiz-adv-x="479" d="M109 1128q0 5 4 13q28 43 28 106q0 30 -10 60.5t-10 46.5q0 41 35 41q34 0 34 -47q0 -62 -15 -125t-40 -99q-5 -8 -14 -8q-5 0 -8.5 4t-3.5 8zM287 1128q0 5 4 13q28 43 28 106q0 30 -10 60.5t-10 46.5q0 41 35 41t35 -47q0 -62 -15.5 -124.5t-40.5 -99.5q-5 -8 -14 -8 q-5 0 -8.5 4t-3.5 8z" />
<glyph unicode="&#x201e;" horiz-adv-x="487" d="M115 -186q0 4 4 12q28 43 28 106q0 30 -10 60.5t-10 46.5q0 41 35 41t35 -47q0 -62 -15.5 -124t-40.5 -99q-6 -9 -14 -9q-4 0 -8 4t-4 9zM293 -186q0 4 4 12q29 45 29 106q0 30 -10.5 60.5t-10.5 46.5q0 41 35 41t35 -47q0 -62 -15.5 -124t-40.5 -99q-6 -9 -14 -9 q-4 0 -8 4t-4 9z" />
<glyph unicode="&#x2022;" horiz-adv-x="856" d="M162 571q0 279 266 279t266 -279q0 -133 -68.5 -199.5t-197.5 -66.5t-197.5 66.5t-68.5 199.5z" />
<glyph unicode="&#x202f;" horiz-adv-x="367" />
<glyph unicode="&#x2039;" horiz-adv-x="663" d="M129 434q0 9 12 21l363 419q7 7 12 7q7 0 11.5 -5.5t4.5 -11.5q0 -8 -8 -16l-358 -414l358 -414q8 -8 8 -16q0 -16 -16 -16q-6 0 -12 6l-363 420q-12 12 -12 20z" />
<glyph unicode="&#x203a;" horiz-adv-x="663" d="M131 4q0 8 8 16l359 414l-359 414q-8 8 -8 16q0 6 4.5 11.5t11.5 5.5q6 0 13 -7l362 -419q13 -13 13 -21q0 -7 -13 -20l-362 -420q-6 -6 -13 -6q-16 0 -16 16z" />
<glyph unicode="&#x205f;" horiz-adv-x="458" />
<glyph unicode="&#x20ac;" horiz-adv-x="1288" d="M12 561q0 6 5 11.5t12 5.5h75q-4 35 -4 110q0 63 2 94h-73q-7 0 -12 5.5t-5 11.5t5 11t12 5h75q27 296 183.5 444t429.5 148q145 0 264.5 -55.5t189.5 -153.5q5 -8 5 -12q0 -8 -6 -13.5t-13 -5.5q-10 0 -16 9q-59 87 -175.5 142.5t-248.5 55.5q-257 0 -402.5 -141 t-171.5 -418h447q16 0 16 -16q0 -6 -4.5 -11.5t-11.5 -5.5h-451q-2 -31 -2 -94q0 -75 4 -110h449q7 0 11.5 -5.5t4.5 -11.5q0 -16 -16 -16h-447q31 -268 175.5 -404.5t398.5 -136.5q133 0 254 55.5t180 143.5q5 8 16 8q8 0 13.5 -5.5t5.5 -12.5t-4 -13q-69 -97 -194 -153 t-271 -56q-269 0 -425 143.5t-186 430.5h-77q-7 0 -12 5t-5 11z" />
<glyph unicode="&#x2122;" horiz-adv-x="817" d="M68 1321q0 14 14 14h264q14 0 14 -14t-14 -14h-117v-334q0 -17 -16 -17t-16 17v334h-115q-14 0 -14 14zM442 973v352q0 6 5 11t12 5q10 0 16 -12l121 -233l121 233q6 12 16 12q7 0 12 -5t5 -11v-352q0 -7 -5.5 -12t-11.5 -5q-14 0 -14 17v295l-103 -197q-7 -14 -20 -14 q-14 0 -21 14l-102 197v-295q0 -17 -14 -17q-6 0 -11.5 5t-5.5 12z" />
<glyph unicode="&#x25fc;" horiz-adv-x="942" d="M0 0v942h942v-942h-942z" />
</font>
</defs>
</svg>
