<?xml version="1.0" standalone="no"?>
<!DOCTYPE svg PUBLIC "-//W3C//DTD SVG 1.1//EN" "http://www.w3.org/Graphics/SVG/1.1/DTD/svg11.dtd" >
<svg xmlns="http://www.w3.org/2000/svg">
<metadata></metadata>
<defs>
<font id="bariolthin_italic" horiz-adv-x="1040" >
<font-face units-per-em="2048" ascent="1612" descent="-436" />
<missing-glyph horiz-adv-x="512" />
<glyph unicode="&#x2e;&#x2e;&#x2e;" horiz-adv-x="1501" d="M111 12q0 51 43 51q28 0 28 -30q0 -49 -43 -49q-28 0 -28 28zM717 12q0 51 43 51q28 0 28 -30q0 -49 -43 -49q-28 0 -28 28zM1323 12q0 51 43 51q29 0 29 -30q0 -49 -43 -49q-29 0 -29 28z" />
<glyph unicode="&#xfb01;" horiz-adv-x="915" d="M-170 -397q0 7 5 12.5t13 5.5q145 0 232.5 80.5t114.5 228.5l170 967h-129q-15 0 -15 14q0 7 5.5 13t15.5 6h129l22 131q28 158 122.5 250t264.5 92q53 0 107 -14t88 -33q12 -6 12 -17q0 -16 -14 -16q-6 0 -31 10q-82 37 -166 37q-146 0 -233.5 -80t-112.5 -229l-22 -131 h489q7 0 11.5 -6.5t2.5 -14.5l-159 -907q-4 -18 -23 -18q-14 0 -14 14v4l159 895h-473l-170 -967q-28 -155 -125 -248.5t-262 -93.5q-14 0 -14 15z" />
<glyph unicode="&#xfb02;" horiz-adv-x="964" d="M-170 -397q0 7 5 12.5t13 5.5q145 0 232.5 80.5t114.5 228.5l170 967h-129q-15 0 -15 14q0 7 5.5 13t15.5 6h129l22 131q28 158 122.5 250t264.5 92q99 0 195 -47q15 -7 12 -25l-201 -1126q-8 -50 -8 -80q0 -54 24.5 -81.5t84.5 -27.5q14 0 14 -14q0 -6 -5.5 -12 t-14.5 -6q-76 0 -108 34.5t-32 100.5q0 34 9 86l122 692h-471l-170 -967q-28 -155 -125 -248.5t-262 -93.5q-14 0 -14 15zM408 930h471l69 401q-82 39 -172 39q-146 0 -233.5 -80t-112.5 -229z" />
<glyph unicode="&#xfb03;" horiz-adv-x="1439" d="M-170 -397q0 7 5 12.5t13 5.5q145 0 232.5 80.5t114.5 228.5l170 967h-129q-15 0 -15 14q0 7 5.5 13t15.5 6h129l22 131q28 156 124.5 249t262.5 93q15 0 15 -14q0 -7 -5.5 -13t-13.5 -6q-146 0 -233.5 -80t-112.5 -229l-22 -131h487l23 131q28 158 122.5 250t264.5 92 q110 0 194 -47q12 -6 12 -17q0 -16 -14 -16q-6 0 -31 10q-82 37 -166 37q-146 0 -233.5 -80t-112.5 -229l-22 -131h489q7 0 12 -6.5t3 -14.5l-160 -907q-4 -18 -23 -18q-14 0 -14 14v4l160 895h-473l-170 -967q-28 -155 -125 -248.5t-262 -93.5q-15 0 -15 15q0 7 5.5 12.5 t13.5 5.5q145 0 232 80.5t114 228.5l170 967h-488l-170 -967q-28 -155 -125 -248.5t-262 -93.5q-14 0 -14 15z" />
<glyph unicode="&#xfb04;" horiz-adv-x="1490" d="M-170 -397q0 7 5 12.5t13 5.5q145 0 232.5 80.5t114.5 228.5l170 967h-129q-15 0 -15 14q0 7 5.5 13t15.5 6h129l22 131q28 156 124.5 249t262.5 93q15 0 15 -14q0 -7 -5.5 -13t-13.5 -6q-146 0 -233.5 -80t-112.5 -229l-22 -131h487l23 131q28 158 122.5 250t264.5 92 q98 0 194 -47q15 -7 12 -25l-200 -1126q-8 -50 -8 -80q0 -54 24 -81.5t84 -27.5q14 0 14 -14q0 -6 -5.5 -12t-14.5 -6q-76 0 -107.5 34.5t-31.5 100.5q0 39 8 86l123 692h-471l-170 -967q-28 -155 -125 -248.5t-262 -93.5q-15 0 -15 15q0 7 5.5 12.5t13.5 5.5 q145 0 232 80.5t114 228.5l170 967h-488l-170 -967q-28 -155 -125 -248.5t-262 -93.5q-14 0 -14 15zM932 930h471l70 401q-82 39 -173 39q-146 0 -233.5 -80t-112.5 -229z" />
<glyph horiz-adv-x="2048" />
<glyph horiz-adv-x="2048" />
<glyph unicode="&#xd;" horiz-adv-x="2048" />
<glyph unicode=" "  horiz-adv-x="512" />
<glyph unicode="&#x09;" horiz-adv-x="512" />
<glyph unicode="&#xa0;" horiz-adv-x="512" />
<glyph unicode="!" horiz-adv-x="288" d="M111 12q0 51 43 51q28 0 28 -30q0 -49 -43 -49q-28 0 -28 28zM178 268l184 1102q4 25 27 25t19 -25l-205 -1102q-3 -14 -15 -14q-13 0 -10 14z" />
<glyph unicode="&#x22;" horiz-adv-x="604" d="M373 1006l55 362q3 27 29 27t20 -27l-74 -362q-3 -13 -16 -13q-14 0 -14 13zM553 1006l55 362q3 27 29 27t20 -27l-73 -362q-3 -13 -17 -13t-14 13z" />
<glyph unicode="#" horiz-adv-x="1062" d="M176 481q0 7 6 13t15 6h182l113 344h-181q-14 0 -14 14q0 7 6 13t14 6h187l147 442q5 16 19 16q16 0 16 -14q0 -5 -6 -23l-143 -421h362l148 442q5 16 18 16q16 0 16 -14q0 -6 -6 -21l-143 -423h176q14 0 14 -15q0 -6 -6 -12t-14 -6h-178l-113 -344h176q12 0 12 -15 q0 -6 -5.5 -12t-12.5 -6h-184l-154 -467q-5 -16 -18 -16q-17 0 -17 14q0 2 6 20l150 449h-363l-153 -467q-5 -16 -21 -16q-14 0 -14 14q0 7 6 25l150 444h-179q-14 0 -14 14zM416 500h358l113 344h-359z" />
<glyph unicode="$" horiz-adv-x="1116" d="M121 227q0 6 4.5 11.5t11.5 5.5q11 0 17 -15q47 -101 142 -163t241 -62q240 0 366.5 107t126.5 286q0 76 -38.5 133t-100 93t-135.5 66t-148 59.5t-135.5 64.5t-100 91t-38.5 130q0 56 14 106.5t47.5 99t83.5 84t127.5 58.5t173.5 25l33 190q4 17 21 17q16 0 12 -17 l-33 -190q253 -5 367 -203q2 -4 2 -8q0 -6 -5.5 -11t-11.5 -5q-9 0 -14 8q-34 58 -77 97.5t-114 64t-165 24.5q-95 0 -170.5 -21.5t-122 -55t-77 -78.5t-42.5 -89t-12 -90q0 -69 38.5 -121.5t100 -85.5t135.5 -61.5t148 -59t135.5 -68t100 -98t38.5 -140.5 q0 -195 -126 -311.5t-382 -123.5l-33 -188q-3 -16 -20 -16q-6 0 -10 5t-2 11l32 188q-154 1 -255.5 71.5t-145.5 170.5q-4 8 -4 14z" />
<glyph unicode="%" horiz-adv-x="1527" d="M289 965q0 63 9.5 122t33.5 118.5t61.5 103t98.5 71t139 27.5q225 0 225 -225q0 -63 -9.5 -122t-33.5 -118.5t-61.5 -103.5t-98.5 -71.5t-139 -27.5q-225 0 -225 226zM322 969q0 -199 196 -199q82 0 143.5 35.5t95.5 95.5t50 129.5t16 147.5q0 198 -196 198 q-66 0 -119 -23.5t-87.5 -62.5t-57 -92.5t-32 -110t-9.5 -118.5zM397 0q0 5 6 14l930 1364q10 17 21 17q6 0 11 -4.5t5 -10.5q0 -7 -6 -16l-932 -1368q-7 -12 -18 -12q-6 0 -11.5 5t-5.5 11zM913 199q0 63 9.5 122t33.5 118.5t61.5 103t98.5 71t139 27.5q226 0 226 -225 q0 -63 -9.5 -122t-33.5 -118.5t-61.5 -103.5t-98.5 -71.5t-139 -27.5q-226 0 -226 226zM946 203q0 -199 197 -199q82 0 143.5 35.5t95.5 95.5t50 129.5t16 147.5q0 198 -197 198q-66 0 -119 -23.5t-87.5 -62.5t-57 -92.5t-32 -110t-9.5 -118.5z" />
<glyph unicode="&#x26;" horiz-adv-x="1347" d="M154 381q0 103 35 186t88 133.5t120.5 85t126.5 48.5t113 16q-35 6 -69 22t-68 44.5t-55 78t-21 111.5q0 72 29 130.5t76.5 95t106 56t120.5 19.5q203 0 282 -143q6 -9 6 -19q0 -6 -5 -11t-11 -5q-9 0 -16 12q-1 3 -2 4q-70 129 -256 129q-53 0 -104 -17t-93.5 -49 t-69 -84.5t-26.5 -117.5q0 -52 17.5 -93.5t46.5 -69t69 -45.5t82.5 -26t89.5 -8q18 0 18 -16q0 -19 -24 -19q-91 0 -172 -15t-154 -49t-126 -85t-84 -127.5t-31 -171.5q0 -71 29.5 -137.5t83.5 -119.5t138.5 -85.5t186.5 -32.5q149 0 270 50t195.5 152t74.5 241 q0 119 -30 186q-54 0 -95 -4.5t-82 -16t-63 -37t-22 -63.5q0 -29 14 -51q6 -9 6 -14q0 -7 -5 -12t-11 -5q-9 0 -19 12q-20 24 -20 64q0 46 22 78t65 49.5t95.5 25t122.5 7.5q56 0 90.5 1.5t71 7.5t56 17.5t32 32t12.5 49.5q0 23 -15.5 45.5t-15.5 28.5t5 11t12 5q8 0 18 -10 q31 -37 31 -84q0 -31 -10 -54.5t-30.5 -38.5t-42.5 -24t-56.5 -13t-62.5 -5.5t-68 -1.5q32 -80 32 -186q0 -115 -46.5 -207.5t-126.5 -151t-184 -89t-222 -30.5q-213 0 -344 121t-131 289z" />
<glyph unicode="'" horiz-adv-x="407" d="M373 1006l55 362q3 27 29 27t20 -27l-74 -362q-3 -13 -16 -13q-14 0 -14 13z" />
<glyph unicode="(" horiz-adv-x="620" d="M223 174q0 167 49 432q14 83 26 144.5t34.5 147.5t46.5 151t61 140t81 130.5t104 105.5t131 82q8 4 14 4q14 0 14 -14q0 -11 -18 -20q-54 -25 -101.5 -63t-84.5 -78t-70 -95.5t-56 -101.5t-44.5 -111t-34.5 -109.5t-27.5 -112.5t-21 -103t-17.5 -97q-47 -275 -47 -416 q0 -178 44 -283t151 -173q12 -8 12 -17q0 -6 -5 -11t-11 -5q-7 0 -15 4q-215 113 -215 469z" />
<glyph unicode=")" horiz-adv-x="620" d="M49 -283q0 14 14 21q68 31 126.5 83t100 107t78 132t59 137.5t44 146t31.5 136t24 126.5q47 275 47 414q0 77 -8 138.5t-28.5 122.5t-60.5 110.5t-99 85.5q-15 10 -15 18q0 6 5.5 11t11.5 5t14 -4q120 -75 168.5 -192t48.5 -281q0 -156 -47 -428q-15 -85 -27 -144.5 t-34.5 -147t-46 -151t-61 -139t-81 -131t-103.5 -106t-130 -82.5q-8 -4 -14 -4t-11.5 5t-5.5 11z" />
<glyph unicode="*" horiz-adv-x="731" d="M287 1204q0 19 16 19q5 0 21 -4l243 -70l-6 262q0 21 17 21q16 0 16 -21l-6 -262l243 70q16 4 21 4q16 0 16 -19q0 -13 -16 -16l-258 -58l164 -219q6 -9 6 -16q0 -6 -6 -11t-13 -5t-16 12l-151 227l-152 -227q-9 -12 -16 -12t-13 5t-6 11q0 7 6 16l164 219l-258 58 q-16 3 -16 16z" />
<glyph unicode="+" horiz-adv-x="909" d="M78 444q0 7 6 13t14 6h422l76 432q3 16 18 16q7 0 11.5 -4.5t3.5 -11.5l-76 -432h422q12 0 12 -14q0 -6 -5.5 -12.5t-12.5 -6.5h-422l-76 -430q-3 -16 -20 -16q-16 0 -13 16l76 430h-422q-14 0 -14 14z" />
<glyph unicode="," horiz-adv-x="288" d="M59 -203q0 5 7 15q51 76 51 131q0 16 -3 36.5t-3 28.5q0 55 43 55q28 0 28 -36q0 -42 -29 -116t-67 -118q-8 -8 -14 -8q-5 0 -9 4t-4 8z" />
<glyph unicode="-" horiz-adv-x="577" d="M174 514q0 6 6 12t15 6h374q13 0 13 -14q0 -6 -6 -12t-13 -6h-375q-14 0 -14 14z" />
<glyph unicode="." horiz-adv-x="288" d="M111 12q0 51 43 51q28 0 28 -30q0 -49 -43 -49q-28 0 -28 28z" />
<glyph unicode="/" horiz-adv-x="833" d="M82 -182q0 4 6 16l860 1692q6 12 19 12q7 0 12.5 -5t5.5 -13q0 -5 -6 -17l-860 -1691q-7 -13 -19 -13q-7 0 -12.5 5.5t-5.5 13.5z" />
<glyph unicode="0" horiz-adv-x="1208" d="M211 387q0 135 14.5 258.5t45 239.5t82 209.5t120.5 164.5t165 109.5t212 38.5q199 0 293 -102t94 -314q0 -135 -14.5 -258.5t-45 -239.5t-82 -209.5t-120.5 -164.5t-165 -109.5t-212 -38.5q-199 0 -293 102t-94 314zM248 391q0 -202 85 -294.5t271 -92.5q128 0 230 54 t169.5 145.5t112.5 218.5t64.5 267t19.5 298q0 202 -85 294.5t-271 92.5q-128 0 -230 -54t-169.5 -145.5t-112.5 -218.5t-64.5 -267t-19.5 -298z" />
<glyph unicode="1" horiz-adv-x="702" d="M297 1122q0 10 10 17l398 247q13 9 20 9t11.5 -5.5t2.5 -13.5l-241 -1374q-4 -18 -23 -18q-7 0 -11.5 5t-2.5 13l237 1339l-370 -233q-6 -4 -13 -4t-12.5 5t-5.5 13z" />
<glyph unicode="2" horiz-adv-x="1073" d="M115 20q13 83 56 154.5t104 124.5t136 100.5t155 89.5t159 85t149 93t123.5 106.5t85 132.5t31.5 165q0 132 -86 217.5t-235 85.5t-241.5 -60t-150.5 -173q-7 -11 -16 -11q-7 0 -12.5 5.5t-5.5 13.5q0 4 6 16q70 127 169 184.5t259 57.5q161 0 255.5 -95t94.5 -235 q0 -92 -31.5 -172t-85 -140t-123 -113t-148 -97.5t-158 -87t-154.5 -88.5t-135.5 -95t-102.5 -112t-55 -135h817q14 0 14 -17q0 -8 -6.5 -14t-13.5 -6h-838q-9 0 -13.5 6t-2.5 14z" />
<glyph unicode="3" horiz-adv-x="1089" d="M123 203q0 16 16 16q13 0 17 -14q27 -99 124 -149t242 -50q241 0 364.5 123.5t123.5 335.5q0 137 -77 218t-249 81h-143q-15 0 -15 16q0 8 15 23l559 538h-670q-6 0 -11 5t-5 12t7 13.5t15 6.5h709q16 0 16 -14q0 -8 -10 -18l-567 -547h106q182 0 271.5 -88t89.5 -238 q0 -231 -133.5 -366.5t-401.5 -135.5q-318 0 -389 213q-4 12 -4 19z" />
<glyph unicode="4" horiz-adv-x="1069" d="M121 352q0 8 8 19l879 1011q13 13 22 13q7 0 11.5 -5.5t2.5 -13.5l-176 -1005h168q6 0 10.5 -4.5t4.5 -10.5q0 -7 -6.5 -13.5t-14.5 -6.5h-168l-59 -334q-4 -18 -23 -18q-7 0 -11.5 5t-2.5 13l59 334h-688q-16 0 -16 16zM178 371h653l166 948z" />
<glyph unicode="5" horiz-adv-x="1126" d="M154 238q0 16 16 16q12 0 16 -14q76 -236 373 -236q103 0 192.5 33t157.5 95.5t107 161.5t39 222q0 162 -94 247t-252 85q-116 0 -210 -34.5t-190 -123.5q-8 -8 -18 -8q-21 0 -21 18q0 6 6 21l234 635q7 22 31 22h641q14 0 14 -14q0 -6 -5.5 -12t-12.5 -6h-635l-230 -615 q157 150 402 150q176 0 277.5 -95.5t101.5 -267.5q0 -133 -41 -238t-114 -172t-171 -102t-215 -35q-312 0 -395 248q-4 12 -4 19z" />
<glyph unicode="6" horiz-adv-x="1159" d="M213 408q0 106 25 247q69 394 221.5 573t400.5 179q107 0 184 -32.5t115 -74.5q10 -10 10 -16q0 -16 -16 -16q-6 0 -14 8q-98 98 -285 98q-240 0 -383 -184.5t-211 -593.5q75 118 196 192t275 74q182 0 284.5 -86.5t102.5 -251.5q0 -117 -36 -217.5t-103 -175.5 t-169.5 -117.5t-229.5 -42.5q-186 0 -276.5 114t-90.5 323zM246 387q0 -174 82 -278.5t254 -104.5q227 0 363 142t136 376q0 153 -95 230t-259 77q-146 0 -265 -73t-204 -203q-12 -68 -12 -166z" />
<glyph unicode="7" horiz-adv-x="983" d="M270 0q26 153 83 286.5t127.5 231t151 184.5t159 162.5t145 148t115.5 157.5t65 176h-792q-15 0 -15 14q0 7 6.5 12.5t14.5 5.5h813q15 0 12 -14q-11 -94 -58 -182.5t-114 -164t-146.5 -153t-162 -166t-155 -186t-130 -229.5t-82.5 -281q-4 -18 -20 -18q-8 0 -13 4.5 t-4 11.5z" />
<glyph unicode="8" horiz-adv-x="1126" d="M164 299q0 189 104 308t299 145q-93 21 -152 90.5t-59 171.5q0 186 126 289.5t331 103.5q158 0 248 -72.5t90 -206.5q0 -158 -92 -252.5t-234 -123.5q126 -24 197.5 -105.5t71.5 -208.5q0 -222 -145.5 -344.5t-389.5 -122.5q-182 0 -288.5 85t-106.5 243zM201 303 q0 -146 97.5 -222.5t266.5 -76.5q224 0 358 111.5t134 320.5q0 146 -94 221.5t-269 75.5q-233 0 -363 -111.5t-130 -318.5zM393 1018q0 -121 82 -186.5t223 -65.5q181 0 298.5 94.5t117.5 261.5q0 122 -81.5 187t-225.5 65q-186 0 -300 -93.5t-114 -262.5z" />
<glyph unicode="9" horiz-adv-x="1159" d="M231 94q0 7 5.5 12t11.5 5q5 0 14 -9q98 -98 285 -98q240 0 383 184.5t211 593.5q-75 -118 -196 -192t-275 -74q-182 0 -284.5 86.5t-102.5 251.5q0 117 36 217.5t103 175.5t169.5 117.5t229.5 42.5q186 0 276.5 -113.5t90.5 -322.5q0 -107 -25 -248 q-69 -394 -221.5 -573t-400.5 -179q-107 0 -184 32.5t-115 74.5q-11 11 -11 16zM319 856q0 -153 95 -230t260 -77q146 0 264 72.5t203 203.5q12 68 12 166q0 175 -81 279t-253 104q-227 0 -363.5 -142t-136.5 -376z" />
<glyph unicode=":" horiz-adv-x="288" d="M111 12q0 51 43 51q28 0 28 -30q0 -49 -43 -49q-28 0 -28 28zM264 883q0 51 43 51q29 0 29 -31q0 -49 -43 -49q-29 0 -29 29z" />
<glyph unicode=";" horiz-adv-x="288" d="M59 -203q0 5 7 15q51 76 51 131q0 16 -3 36.5t-3 28.5q0 55 43 55q28 0 28 -36q0 -42 -29 -116t-67 -118q-8 -8 -14 -8q-5 0 -9 4t-4 8zM264 883q0 51 43 51q29 0 29 -31q0 -49 -43 -49q-29 0 -29 29z" />
<glyph unicode="&#x3c;" horiz-adv-x="704" d="M106 479q0 11 13 19l704 489q9 6 15 6t10 -5t4 -11q0 -9 -12 -16l-693 -482l525 -481q6 -6 6 -12t-5 -11.5t-11 -5.5q-7 0 -13 6l-534 490q-9 9 -9 14z" />
<glyph unicode="=" horiz-adv-x="909" d="M51 289q0 6 6 12t15 6h876q13 0 13 -14q0 -6 -6 -12.5t-13 -6.5h-876q-15 0 -15 15zM106 602q0 6 6 12.5t15 6.5h877q12 0 12 -15q0 -6 -6 -12t-13 -6h-876q-15 0 -15 14z" />
<glyph unicode="&#x3e;" horiz-adv-x="704" d="M23 -14q0 9 12 16l692 483l-524 480q-6 6 -6 12t5 11t11 5t12 -6l535 -489q8 -8 8 -15q0 -11 -12 -18l-705 -490q-9 -6 -14 -6q-6 0 -10 5.5t-4 11.5z" />
<glyph unicode="?" horiz-adv-x="944" d="M281 1053q9 54 26 101.5t50.5 95t79.5 81.5t116.5 55t157.5 21q159 0 244 -77.5t85 -213.5q0 -99 -32.5 -178t-84 -130t-113.5 -93t-124.5 -77t-114 -71.5t-84 -87.5t-32.5 -114q0 -55 30 -101q7 -10 7 -14q0 -8 -6 -13.5t-13 -5.5q-9 0 -16 11q-39 59 -39 120 q0 69 32.5 124.5t84 93.5t114 73.5t125 76t114 89t84 123.5t32.5 170q0 121 -76 191.5t-223 70.5q-168 0 -266.5 -85t-123.5 -238q-3 -19 -18 -19q-9 0 -13.5 6.5t-2.5 14.5zM381 12q0 51 43 51q29 0 29 -30q0 -49 -43 -49q-29 0 -29 28z" />
<glyph unicode="@" horiz-adv-x="1642" d="M135 190q0 434 231.5 670t645.5 236q289 0 455.5 -143t166.5 -418q0 -55 -8 -112t-25 -122t-49 -121.5t-76 -103.5t-111 -74t-148 -27q-89 0 -128.5 33.5t-39.5 108.5q0 31 10 76q-16 -37 -42 -73t-62.5 -70t-88 -54.5t-108.5 -20.5q-119 0 -176.5 72t-57.5 197 q0 207 115 349t291 142q135 0 209 -84l10 58q4 18 20 18q8 0 12.5 -5.5t2.5 -12.5l-97 -508q-10 -58 -10 -88q0 -56 31.5 -80.5t112.5 -24.5q68 0 124.5 21t95 55t68 81t46 94t27 100t14 94t3.5 79q0 263 -157.5 397t-435.5 134q-401 0 -617.5 -228t-216.5 -640 q0 -277 152 -414t432 -137q308 0 514 135q13 8 20 8q6 0 10.5 -5t4.5 -11q0 -12 -17 -23q-127 -77 -248 -107t-290 -30q-294 0 -454.5 145.5t-160.5 433.5zM563 244q0 -115 47.5 -175.5t159.5 -60.5q110 0 198.5 97.5t114.5 246.5l47 266q-74 84 -200 84q-159 0 -263 -131.5 t-104 -326.5z" />
<glyph unicode="A" horiz-adv-x="1236" d="M63 0q0 6 5 14l778 1368q6 13 16 13q12 0 15 -13l297 -1372q1 -4 1 -7q0 -19 -20 -19q-15 0 -18 16l-99 455h-678l-260 -459q-7 -12 -20 -12q-6 0 -11.5 5t-5.5 11zM379 487h653l-178 842z" />
<glyph unicode="B" horiz-adv-x="1118" d="M199 18l235 1342q4 18 23 18h356q172 0 255 -70.5t83 -199.5q0 -90 -30.5 -161.5t-80.5 -115t-104 -68t-111 -32.5q120 -6 196.5 -81.5t76.5 -209.5q0 -199 -115.5 -319.5t-343.5 -120.5h-426q-7 0 -11 5q-3 3 -4 8q0 3 1 5zM238 33h407q108 0 190 30.5t131.5 85.5 t74 127t24.5 160q0 132 -80 203.5t-225 71.5h-404zM362 743h338q185 0 299.5 96.5t114.5 266.5q0 240 -307 240h-338z" />
<glyph unicode="C" horiz-adv-x="1288" d="M199 473q0 202 51.5 372.5t147.5 295.5t241.5 195.5t325.5 70.5q144 0 254 -56.5t163 -154.5q2 -4 2 -10q0 -8 -5.5 -13.5t-12.5 -5.5q-10 0 -16 11q-44 88 -148.5 142t-243.5 54q-172 0 -310.5 -69.5t-227.5 -191t-136.5 -283.5t-47.5 -349q0 -477 481 -477 q137 0 264 55.5t205 143.5q8 8 16 8t13.5 -5.5t5.5 -12.5q0 -8 -7 -15q-210 -207 -503 -207q-250 0 -381 126t-131 376z" />
<glyph unicode="D" horiz-adv-x="1234" d="M199 18l235 1342q4 18 23 18h301q254 0 387 -114.5t133 -362.5q0 -218 -55 -389.5t-155.5 -283t-241 -170t-312.5 -58.5h-301q-7 0 -11 5q-3 3 -4 8q0 3 1 5zM238 33h282q329 0 525 229.5t196 632.5q0 236 -125 343.5t-364 107.5h-283z" />
<glyph unicode="E" d="M199 18l235 1342q4 18 21 18h700q14 0 14 -14q0 -6 -5.5 -12t-14.5 -6h-680l-113 -635h535q14 0 14 -15q0 -7 -5 -12.5t-13 -5.5h-535l-114 -645h704q14 0 14 -15q0 -6 -6 -12t-14 -6h-725q-13 0 -13 12q0 2 1 6z" />
<glyph unicode="F" d="M195 2l239 1358q4 18 19 18h700q14 0 14 -14q0 -6 -5.5 -12t-12.5 -6h-680l-117 -656h535q14 0 14 -14q0 -7 -6 -13t-14 -6h-535l-115 -655q-4 -18 -22 -18q-7 0 -11 5q-3 3 -4 8q0 3 1 5z" />
<glyph unicode="G" horiz-adv-x="1372" d="M199 473q0 202 51.5 372.5t147.5 295.5t241.5 195.5t325.5 70.5q144 0 254 -56.5t163 -154.5q2 -4 2 -10q0 -8 -5.5 -13.5t-12.5 -5.5q-10 0 -16 11q-44 88 -148.5 142t-243.5 54q-172 0 -310.5 -69.5t-227.5 -191t-136.5 -283.5t-47.5 -349q0 -477 481 -477 q139 0 278 63.5t215 159.5l68 375h-401q-15 0 -15 14q0 6 6 12.5t15 6.5h409q10 0 17.5 -8t5.5 -19l-64 -366q-3 -20 -22 -43q-93 -102 -232 -165t-286 -63q-250 0 -381 126t-131 376z" />
<glyph unicode="H" horiz-adv-x="1310" d="M195 2l241 1374q4 19 23 19q7 0 11.5 -5.5t2.5 -13.5l-115 -649h848l115 649q4 19 22 19q7 1 12 -5q4 -4 4 -10q0 -2 -1 -4l-242 -1374q-4 -18 -22 -18q-8 0 -12 5.5t-3 12.5l123 692h-848l-123 -692q-4 -18 -22 -18q-7 0 -11 5q-3 3 -4 8q0 3 1 5z" />
<glyph unicode="I" horiz-adv-x="425" d="M195 2l241 1374q4 19 23 19q7 1 11 -5q3 -4 3 -9v-5l-242 -1374q-4 -18 -22 -18q-7 0 -11 5q-3 3 -4 8q0 3 1 5z" />
<glyph unicode="J" horiz-adv-x="815" d="M61 33q0 6 5 11t12 5q6 0 22 -8q64 -35 179 -35q89 0 155 27t108.5 80t68.5 118.5t42 155.5l174 989q4 19 21 19q8 0 12.5 -6t3.5 -13l-174 -989q-17 -99 -45 -170.5t-76 -129.5t-122 -87t-175 -29q-56 0 -112 13t-90 34q-9 4 -9 15z" />
<glyph unicode="K" horiz-adv-x="1107" d="M195 2l241 1374q1 7 8 13t15 6q7 0 11.5 -5.5t2.5 -13.5l-145 -831l876 844q8 6 15 6t12.5 -5.5t5.5 -13.5t-8 -16l-586 -557l424 -791q2 -4 2 -10q0 -7 -5 -12.5t-13 -5.5q-10 0 -17 10l-420 780l-297 -285l-86 -487q-4 -18 -22 -18q-7 0 -11 5q-3 3 -4 8q0 3 1 5z" />
<glyph unicode="L" horiz-adv-x="958" d="M199 18l239 1358q4 19 21 19q8 0 12.5 -6t3.5 -13l-237 -1343h653q14 0 14 -15q0 -6 -5.5 -12t-14.5 -6h-674q-13 0 -13 12q0 2 1 6z" />
<glyph unicode="M" horiz-adv-x="1562" d="M174 2l242 1374q4 19 20 19q11 0 15 -11l366 -1105l756 1103q10 13 20 13q8 0 13 -6t4 -13l-242 -1374q-4 -18 -22 -18q-8 0 -12 5.5t-3 12.5l228 1296l-725 -1056q-10 -13 -25 -13q-9 0 -16 13l-355 1063l-227 -1303q-4 -18 -23 -18q-8 0 -12 5q-3 3 -3 8q0 3 1 5z" />
<glyph unicode="N" horiz-adv-x="1267" d="M174 2l242 1374q4 19 22 19q8 0 15 -11l614 -1321l231 1313q1 7 8 13t15 6q7 1 11 -5q3 -4 4 -9q0 -2 -1 -5l-241 -1374q-4 -18 -23 -18q-13 0 -16 10l-613 1329l-231 -1321q-4 -18 -23 -18q-8 0 -12 5q-3 3 -3 8q0 3 1 5z" />
<glyph unicode="O" horiz-adv-x="1433" d="M199 473q0 138 26 268t85 252t145.5 213t217 146t290.5 55q251 0 381.5 -126t130.5 -376q0 -138 -26 -268t-85 -252t-145.5 -213t-217 -146t-290.5 -55q-251 0 -381.5 126t-130.5 376zM236 481q0 -477 481 -477q146 0 267 49.5t204 134t140 199.5t83.5 243t26.5 267 q0 477 -482 477q-146 0 -267 -49.5t-204 -134t-140 -199.5t-83 -243t-26 -267z" />
<glyph unicode="P" horiz-adv-x="1093" d="M195 2l239 1358q4 18 21 18h413q142 0 226 -81.5t84 -221.5q0 -202 -123.5 -334.5t-321.5 -132.5h-395l-107 -606q-4 -18 -22 -18q-7 0 -11 5q-3 3 -4 8q0 3 1 5zM344 641h391q183 0 294.5 124t111.5 302q0 130 -72.5 204.5t-204.5 74.5h-395z" />
<glyph unicode="Q" horiz-adv-x="1433" d="M199 473q0 138 26 268t85 252t145.5 213t217 146t290.5 55q251 0 381.5 -126t130.5 -376q0 -122 -20.5 -238t-66 -228t-113 -201t-167.5 -155t-223 -93q151 -33 243 -170q5 -8 5 -13q0 -6 -5.5 -11t-11.5 -5q-9 0 -14 8q-117 172 -330 172h-61q-251 0 -381.5 126 t-130.5 376zM236 481q0 -477 481 -477q146 0 267 49.5t204 134t140 199.5t83.5 243t26.5 267q0 477 -482 477q-146 0 -267 -49.5t-204 -134t-140 -199.5t-83 -243t-26 -267z" />
<glyph unicode="R" horiz-adv-x="1114" d="M195 2l239 1358q4 18 21 18h419q142 0 229 -89.5t87 -225.5q0 -178 -129.5 -304t-317.5 -126h-43q22 -40 57.5 -104.5t110.5 -201.5t123.5 -226.5t46.5 -86.5q4 -4 4 -12t-5 -13t-13 -5q-9 0 -16 10l-346 639h-320l-111 -631q-4 -18 -22 -18q-7 0 -11 5q-3 3 -4 8 q0 3 1 5zM348 666h402q112 0 205.5 55.5t145.5 145.5t52 192q0 122 -76 204.5t-207 82.5h-403z" />
<glyph unicode="S" horiz-adv-x="1116" d="M121 227q0 6 4.5 11.5t11.5 5.5q11 0 17 -15q47 -101 142 -163t241 -62q240 0 366.5 107t126.5 286q0 76 -38.5 133t-100 93t-135.5 66t-148 59.5t-135.5 64.5t-100 91t-38.5 130q0 57 15 109t50 101t87.5 84.5t133.5 57t181 21.5q142 0 233 -52t146 -151q2 -4 2 -8 q0 -6 -5.5 -11t-11.5 -5q-9 0 -14 8q-34 58 -77 97.5t-114 64t-165 24.5q-95 0 -170.5 -21.5t-122 -55t-77 -78.5t-42.5 -89t-12 -90q0 -69 38.5 -121.5t100 -85.5t135.5 -61.5t148 -59t135.5 -68t100 -98t38.5 -140.5q0 -198 -137.5 -316.5t-399.5 -118.5q-81 0 -150.5 21 t-118 56.5t-82.5 76.5t-54 88q-4 8 -4 14z" />
<glyph unicode="T" horiz-adv-x="1101" d="M317 1360q0 6 6 12t15 6h913q13 0 13 -14q0 -6 -6 -12t-13 -6h-438l-238 -1344q-4 -18 -22 -18q-8 0 -12 5.5t-3 12.5l238 1344h-438q-15 0 -15 14z" />
<glyph unicode="U" horiz-adv-x="1280" d="M252 266q0 54 10 115l174 995q1 7 8 13t15 6q7 0 11.5 -5.5t2.5 -13.5l-174 -995q-10 -62 -10 -109q0 -127 81.5 -196.5t282.5 -69.5q101 0 180 20t130 52.5t87.5 82.5t55.5 102t31 118l174 995q4 19 22 19q7 1 12 -5q4 -4 4 -10q0 -2 -1 -4l-174 -995q-9 -50 -21 -91 t-32 -84.5t-47 -77t-67 -64t-90.5 -50.5t-119 -31.5t-150.5 -11.5q-112 0 -191.5 22t-122.5 63.5t-62 92.5t-19 117z" />
<glyph unicode="V" horiz-adv-x="1179" d="M303 1376q0 8 5.5 13.5t13.5 5.5q15 0 18 -17l256 -1333l729 1339q5 11 16 11q7 0 13 -5.5t6 -13.5q0 -7 -6 -16l-748 -1362q-8 -14 -20 -14t-15 14l-266 1364q-2 8 -2 14z" />
<glyph unicode="W" horiz-adv-x="1691" d="M305 1376q0 8 5.5 13.5t13.5 5.5q15 0 18 -17l127 -1329l602 1331q7 15 21 15q12 0 16 -15l131 -1331l594 1331q6 15 18 15q7 0 13 -5.5t6 -13.5q0 -6 -6 -18l-615 -1360q-6 -14 -20 -14q-15 0 -17 14l-133 1321l-600 -1321q-6 -14 -20 -14q-6 0 -11.5 4.5t-5.5 11.5 l-135 1354q0 2 -1 11.5t-1 10.5z" />
<glyph unicode="X" horiz-adv-x="995" d="M27 2q0 5 6 14l571 693l-305 659q-2 4 -2 8q0 8 5.5 13.5t12.5 5.5q13 0 19 -15l293 -635l522 637q10 13 18 13q7 0 13 -5.5t6 -13.5t-6 -14l-537 -653l324 -697q2 -4 2 -10q0 -7 -5.5 -12.5t-13.5 -5.5q-11 0 -16 10l-316 676l-555 -674q-9 -12 -18 -12q-7 0 -12.5 5 t-5.5 13z" />
<glyph unicode="Y" d="M299 1376q0 8 5.5 13.5t12.5 5.5q10 0 17 -11l309 -679l545 677q9 13 18 13q8 0 13.5 -5.5t5.5 -13.5t-6 -14l-564 -696l-116 -664q-4 -18 -23 -18q-7 0 -11.5 5t-2.5 13l116 664l-317 702q-2 4 -2 8z" />
<glyph unicode="Z" horiz-adv-x="1017" d="M35 14q0 9 10 19l1085 1313h-796q-15 0 -15 14q0 7 5.5 12.5t13.5 5.5h831q15 0 15 -14q0 -5 -8 -16l-1084 -1315h875q12 0 12 -15q0 -6 -5.5 -12t-12.5 -6h-912q-14 0 -14 14z" />
<glyph unicode="[" horiz-adv-x="477" d="M104 -281l314 1774q3 18 20 18h172q15 0 15 -14q0 -6 -6 -12t-15 -6h-153l-308 -1745h154q14 0 14 -15q0 -7 -5.5 -12.5t-14.5 -5.5h-172q-8 0 -12 5.5t-3 12.5z" />
<glyph unicode="\" horiz-adv-x="833" d="M385 1520q0 8 5.5 13t12.5 5q16 0 19 -16l262 -1678q4 -24 4 -26q0 -8 -5.5 -13.5t-12.5 -5.5q-16 0 -19 17l-262 1677q-4 24 -4 27z" />
<glyph unicode="]" horiz-adv-x="479" d="M68 -285q0 7 6 13t14 6h154l307 1745h-154q-14 0 -14 14q0 7 5.5 12.5t14.5 5.5h172q8 0 12 -5.5t3 -12.5l-314 -1774q-4 -18 -20 -18h-172q-14 0 -14 14z" />
<glyph unicode="^" horiz-adv-x="958" d="M225 770q0 5 8 16l474 615q11 14 24 14t19 -14l251 -621q3 -9 3 -10q0 -14 -15 -14q-10 0 -14 12l-248 610l-473 -614q-5 -8 -14 -8q-15 0 -15 14z" />
<glyph unicode="_" horiz-adv-x="831" d="M-57 -143q0 7 5.5 12.5t14.5 5.5h864q13 0 13 -14q0 -6 -6 -12.5t-13 -6.5h-864q-14 0 -14 15z" />
<glyph unicode="`" horiz-adv-x="757" d="M496 1309q-15 19 4 32q19 14 30 -4l164 -243q8 -12 -4 -21q-11 -8 -18 2z" />
<glyph unicode="a" horiz-adv-x="995" d="M141 319q0 175 68 321t188.5 231t268.5 85q87 0 159 -32t119 -84l14 88q4 18 21 18q9 0 13 -5q3 -3 4 -8q0 -2 -1 -5l-164 -926q-4 -18 -22 -18q-7 0 -11.5 5t-2.5 13l51 268q-17 -48 -51 -97.5t-83 -95.5t-117 -75t-142 -29q-157 0 -234.5 93.5t-77.5 252.5zM178 319 q0 -148 68 -230.5t213 -82.5t266.5 131t153.5 324l57 344q-106 119 -270 119q-138 0 -250 -81t-175 -219.5t-63 -304.5z" />
<glyph unicode="b" horiz-adv-x="1034" d="M219 272q0 41 10 99l189 1069q4 18 22 18q8 0 12 -5.5t3 -12.5l-121 -686q4 8 13 22t42 49t72 62t105 49t139 22q163 0 249 -83t86 -252q0 -295 -130 -472.5t-361 -177.5q-154 0 -242 76t-88 223zM256 272q0 -132 79.5 -199t219.5 -67q142 0 244.5 79.5t153.5 216 t51 314.5q0 155 -78 232.5t-228 77.5q-72 0 -137.5 -24.5t-107 -60t-73 -71t-44.5 -60.5l-14 -24l-56 -315q-10 -55 -10 -99z" />
<glyph unicode="c" horiz-adv-x="907" d="M160 309q0 192 56 336.5t172.5 228.5t281.5 84q179 0 268 -110q6 -9 6 -14q0 -6 -4.5 -11.5t-11.5 -5.5t-13 6q-42 49 -98 76t-153 27q-220 0 -343.5 -166.5t-123.5 -444.5q0 -157 76 -233t229 -76q144 0 297 103q9 6 16 6q6 0 10 -5.5t4 -11.5q0 -9 -8 -14 q-152 -111 -325 -111q-163 0 -249.5 85.5t-86.5 250.5z" />
<glyph unicode="d" horiz-adv-x="1024" d="M158 309q0 93 16.5 182.5t54.5 175t93 149.5t139.5 103t187.5 39q73 0 133 -21t93 -51t55 -60t30 -51l7 -21l120 686q4 18 21 18q8 0 12.5 -5.5t3.5 -12.5l-188 -1069q-34 -195 -152.5 -296.5t-294.5 -101.5q-331 0 -331 336zM195 315q0 -309 299 -309q161 0 267 93.5 t138 271.5l55 315q-1 10 -5 26t-25 57.5t-51.5 73t-90.5 57.5t-137 26q-89 0 -163.5 -34.5t-127 -93.5t-89 -138t-53.5 -166t-17 -179z" />
<glyph unicode="e" horiz-adv-x="964" d="M160 307q0 94 17.5 183.5t58 175.5t99 150t147 103t196.5 39q125 0 209 -55.5t84 -154.5q0 -306 -764 -306q-12 -66 -12 -127q0 -309 301 -309q75 0 141.5 17.5t101 35.5t78.5 47q13 9 17 9q6 0 11 -5t5 -12q0 -9 -10 -16q-33 -22 -56.5 -35.5t-69 -33.5t-102.5 -30 t-123 -10q-158 0 -243.5 84.5t-85.5 249.5zM211 473q109 0 206 7t194.5 26t167.5 48.5t113.5 78.5t43.5 112q0 89 -76.5 135t-187.5 46q-181 0 -302.5 -121.5t-158.5 -331.5z" />
<glyph unicode="f" horiz-adv-x="561" d="M-170 -397q0 7 5 12.5t13 5.5q145 0 232.5 80.5t114.5 228.5l170 967h-129q-15 0 -15 14q0 7 5.5 13t15.5 6h129l22 131q28 156 124.5 249t262.5 93q15 0 15 -14q0 -7 -5.5 -13t-13.5 -6q-146 0 -233.5 -80t-112.5 -229l-22 -131h251q6 0 10.5 -4.5t4.5 -10.5t-6 -12 t-15 -6h-252l-170 -967q-28 -155 -125 -248.5t-262 -93.5q-14 0 -14 15z" />
<glyph unicode="g" horiz-adv-x="995" d="M135 -227q0 46 18.5 83.5t44 63t76 53t89 43t110 44t113.5 46.5q-72 -14 -121 -14q-150 0 -228.5 81.5t-78.5 246.5q0 248 132 393t353 145q153 0 240.5 -74t87.5 -216q0 -25 -17 -125l-100 -568q-24 -133 -92 -221.5t-164 -127t-221 -38.5q-112 0 -177 52t-65 133z M174 -219q0 -75 58.5 -117.5t154.5 -42.5q166 0 280 86.5t148 267.5l62 334q-24 -56 -76 -103.5t-115.5 -80.5t-135 -63t-137.5 -58t-120 -59t-86.5 -72.5t-32.5 -91.5zM197 432q0 -160 70 -235.5t208 -75.5q172 0 285.5 95t140.5 230l19 93q14 75 14 123q0 129 -79 196.5 t-218 67.5q-196 0 -318 -134.5t-122 -359.5z" />
<glyph unicode="h" horiz-adv-x="1024" d="M164 2l254 1438q4 18 20 18q8 0 13 -5.5t4 -12.5l-123 -697q17 39 47 74.5t74 68.5t108 52.5t139 19.5q161 0 228 -67t67 -184q0 -46 -10 -111l-104 -594q-4 -18 -23 -18q-7 0 -11.5 5t-2.5 13l108 612q9 58 9 88q0 222 -267 222q-82 0 -152 -27.5t-117 -73.5 t-77.5 -101.5t-40.5 -115.5l-106 -604q-4 -18 -23 -18q-8 0 -12 5q-3 3 -3 8q0 3 1 5z" />
<glyph unicode="i" horiz-adv-x="364" d="M164 2l164 926q4 18 22 18q7 0 11.5 -5t3.5 -13l-164 -926q-4 -18 -23 -18q-17 0 -14 18zM379 1255q0 15 8 29t23 14q20 0 20 -20q0 -15 -8 -29t-23 -14q-20 0 -20 20z" />
<glyph unicode="j" horiz-adv-x="374" d="M-135 -397q0 7 5 12.5t15 5.5q101 0 175 75.5t94 184.5l184 1047q4 18 22 18q8 0 12 -5.5t3 -12.5l-185 -1047q-22 -128 -106 -210.5t-205 -82.5q-14 0 -14 15zM389 1255q0 15 8 29t23 14q20 0 20 -20q0 -15 -7.5 -29t-22.5 -14q-21 0 -21 20z" />
<glyph unicode="k" horiz-adv-x="888" d="M164 2l254 1438q4 18 20 18q8 0 13 -5.5t4 -12.5l-174 -996l677 496q9 6 15 6q7 0 12.5 -5t5.5 -13q0 -10 -10 -17l-487 -352l346 -541q6 -9 6 -16t-5.5 -12.5t-13.5 -5.5q-9 0 -16 10l-346 545l-193 -138l-71 -399q-4 -18 -23 -18q-8 0 -12 5q-3 3 -3 8q0 3 1 5z" />
<glyph unicode="l" horiz-adv-x="405" d="M182 119q0 39 8 86l218 1235q4 18 22 18q8 0 12.5 -5.5t3.5 -12.5l-219 -1235q-8 -50 -8 -80q0 -54 24.5 -81.5t84.5 -27.5q14 0 14 -14q0 -6 -6 -12t-14 -6q-76 0 -108 34.5t-32 100.5z" />
<glyph unicode="m" horiz-adv-x="1654" d="M164 2l164 926q4 18 20 18q8 0 13 -5.5t4 -12.5l-33 -185q19 39 47 74t69.5 68t102 53t131.5 20q148 0 220.5 -65t72.5 -174q34 101 128 170t238 69q156 0 224.5 -68.5t68.5 -182.5q0 -41 -12 -111l-104 -594q-4 -18 -23 -18q-7 0 -11.5 5t-2.5 13l104 594q12 66 12 106 q0 222 -262 222q-81 0 -148.5 -27.5t-111.5 -73.5t-71.5 -101t-38.5 -116l-107 -604q-4 -18 -22 -18q-8 0 -12 5.5t-3 12.5l113 637q6 40 6 68q0 99 -61.5 158t-202.5 59q-77 0 -143 -27.5t-111.5 -73.5t-75 -101.5t-39.5 -115.5l-106 -604q-4 -18 -23 -18q-8 0 -12 5 q-3 3 -3 8q0 3 1 5z" />
<glyph unicode="n" horiz-adv-x="1024" d="M164 2l164 926q4 18 22 18q8 0 12 -5.5t3 -12.5l-33 -185q39 86 135 150.5t233 64.5q157 0 227 -68t70 -183q0 -41 -12 -111l-104 -594q-4 -18 -23 -18q-17 0 -14 18l104 594q13 72 13 106q0 222 -267 222q-157 0 -261 -95t-126 -223l-106 -604q-4 -18 -23 -18 q-17 0 -14 18z" />
<glyph unicode="o" horiz-adv-x="999" d="M160 309q0 94 16 182.5t54.5 174.5t95 150t145.5 103t199 39q336 0 336 -335q0 -66 -8 -130t-26.5 -129.5t-46 -122t-69 -106.5t-92.5 -85.5t-120 -56t-148 -20.5q-336 0 -336 336zM197 315q0 -309 305 -309q96 0 175 34.5t132.5 93t90 137.5t53 165.5t16.5 179.5 q0 310 -305 310q-96 0 -175 -35t-132.5 -93.5t-90 -137.5t-53 -165.5t-16.5 -179.5z" />
<glyph unicode="p" horiz-adv-x="1034" d="M94 -393l234 1321q4 18 20 18q8 0 13 -5.5t4 -12.5l-39 -213q117 243 391 243q159 0 241 -85.5t82 -241.5q0 -76 -11 -150.5t-34.5 -150t-63.5 -139t-92.5 -113t-128 -77.5t-165.5 -28q-60 0 -109 14t-79.5 36.5t-53.5 50t-34 55t-18 50t-8 36.5l-1 14l-111 -622 q-4 -19 -20 -19q-8 0 -13 6t-4 13zM268 322q0 -155 71 -235.5t210 -80.5q113 0 202 54.5t142 144t80.5 195.5t27.5 218q0 308 -288 308q-94 0 -171 -37.5t-127 -98t-84 -141t-48.5 -162.5t-14.5 -165z" />
<glyph unicode="q" horiz-adv-x="1011" d="M158 301q0 114 18 212t56.5 180.5t96 141t139.5 91t183 32.5q153 0 240.5 -75t87.5 -221q0 -43 -10 -101l-168 -954q-4 -19 -21 -19q-9 0 -13.5 5.5t-2.5 13.5l100 571q-5 -8 -14 -22t-43.5 -49.5t-75 -62.5t-109 -49t-145.5 -22q-319 0 -319 328zM197 313 q0 -161 69.5 -234t216.5 -73q56 0 107.5 13t90 34.5t71.5 47t55.5 51t38.5 47t24 34.5l7 13l55 315q10 58 10 96q0 131 -79 200t-218 69q-115 0 -202.5 -47t-140.5 -131t-79 -193.5t-26 -241.5z" />
<glyph unicode="r" horiz-adv-x="579" d="M164 2l162 920q4 18 22 18q7 0 11.5 -5t2.5 -13l-36 -207q17 43 47.5 82.5t75.5 76t110.5 58.5t140.5 22q15 0 15 -14q0 -6 -6 -12t-15 -6q-84 0 -156 -32.5t-119.5 -85t-77 -112.5t-40.5 -121l-100 -569q-4 -18 -23 -18q-8 0 -12 5q-3 3 -3 8q0 3 1 5z" />
<glyph unicode="s" horiz-adv-x="817" d="M86 125q0 6 5 11t11 5q10 0 17 -10q92 -125 289 -125q151 0 242 65t91 185q0 51 -28 90t-73 63.5t-99.5 45l-109 41t-99.5 45t-73 64.5t-28 93q0 124 96 192t244 68q96 0 169 -40t104 -99q2 -4 2 -8q0 -6 -5.5 -11t-11.5 -5q-9 0 -14 8q-77 123 -250 123 q-126 0 -210.5 -58.5t-84.5 -162.5q0 -48 28 -84.5t73 -59.5t99 -43t108 -41t99 -47.5t73 -69t28 -98.5q0 -141 -104 -215t-273 -74q-116 0 -194 41t-115 97q-6 9 -6 14z" />
<glyph unicode="t" horiz-adv-x="528" d="M211 911q0 7 5 13t13 6h127l47 262q4 18 23 18q7 0 11.5 -5t2.5 -13l-47 -262h187q5 0 8.5 -4.5t3.5 -10.5q0 -7 -5.5 -12.5t-13.5 -5.5h-184l-119 -672q-8 -47 -8 -73q0 -68 33 -102t106 -34q15 0 15 -14q0 -6 -6 -12t-15 -6q-168 0 -168 168q0 38 6 73l119 672h-127 q-14 0 -14 14z" />
<glyph unicode="u" horiz-adv-x="1003" d="M193 233q0 45 10 103l102 592q4 18 23 18q7 0 11.5 -5t2.5 -13l-104 -611q-9 -52 -9 -81q0 -228 275 -228q323 0 377 309l106 611q4 18 23 18q8 0 12 -5q3 -3 3 -8q0 -2 -1 -5l-104 -592q-11 -61 -27.5 -110.5t-48.5 -98t-76.5 -81.5t-113.5 -53t-156 -20 q-305 0 -305 260z" />
<glyph unicode="v" horiz-adv-x="876" d="M213 928q0 8 5.5 13t12.5 5q16 0 19 -14l194 -891l510 893q6 12 19 12q7 0 12.5 -5t5.5 -13q0 -5 -6 -17l-528 -913q-8 -14 -21 -14t-16 14l-203 907q-4 16 -4 23z" />
<glyph unicode="w" horiz-adv-x="1343" d="M213 928q0 8 5.5 13t12.5 5q15 0 19 -14l151 -885l416 885q7 14 23 14q12 0 16 -14l98 -885l469 889q7 10 17 10q8 0 13 -5t5 -13q0 -5 -6 -17l-485 -911q-8 -16 -21 -16q-14 0 -18 16l-99 881l-413 -881q-8 -16 -23 -16q-12 0 -16 16l-162 911q-2 10 -2 17z" />
<glyph unicode="x" horiz-adv-x="786" d="M43 2q0 8 6 14l408 459l-240 445q-2 4 -2 8q0 8 5.5 13t12.5 5q10 0 17 -10l231 -436l381 438q8 8 17 8q7 0 12.5 -5t5.5 -13q0 -9 -6 -15l-393 -444l241 -459q2 -4 2 -8q0 -8 -5.5 -13t-12.5 -5q-9 0 -16 10l-234 448l-395 -450q-8 -8 -17 -8q-7 0 -12.5 5t-5.5 13z" />
<glyph unicode="y" horiz-adv-x="1001" d="M135 -236q0 49 22 89.5t53 67.5t87.5 55t101 44.5t120 43.5t120.5 45q-66 -17 -123 -17q-305 0 -305 260q0 45 10 103l84 473q4 18 23 18q7 0 11.5 -5t2.5 -13l-86 -492q-8 -46 -8 -82q0 -111 63 -169t211 -58q323 0 377 309l88 492q4 18 23 18q7 0 12 -5q3 -3 3 -8 q0 -3 -1 -5l-170 -953q-24 -133 -92 -221.5t-164 -127t-221 -38.5q-119 0 -180.5 47t-61.5 129zM174 -227q0 -152 213 -152q167 0 281.5 87t146.5 267l51 281q-26 -48 -78.5 -89t-114.5 -69.5t-132 -55.5t-134.5 -53.5t-117 -55.5t-84 -70t-31.5 -90z" />
<glyph unicode="z" horiz-adv-x="798" d="M61 14q0 8 9 17l764 866h-558q-14 0 -14 14q0 7 6 13t15 6h591q13 0 13 -15q0 -5 -10 -18l-760 -864h612q5 0 8.5 -4.5t3.5 -10.5t-6 -12t-12 -6h-647q-15 0 -15 14z" />
<glyph unicode="{" horiz-adv-x="606" d="M178 604q0 6 6 12.5t15 6.5h26q106 0 163 55t79 176q14 80 28.5 239t30.5 246q13 82 67.5 127t139.5 45q15 0 15 -14q0 -6 -6 -12t-15 -6q-64 0 -108 -35.5t-56 -104.5q-14 -80 -31 -244t-32 -243q-19 -111 -79.5 -178.5t-152.5 -67.5q75 0 113.5 -50.5t38.5 -135.5 q0 -78 -59.5 -301.5t-59.5 -274.5q0 -55 31.5 -82.5t87.5 -27.5q14 0 14 -15q0 -7 -6 -12.5t-14 -5.5q-71 0 -110.5 36.5t-39.5 102.5q0 70 31 177.5t62.5 218t31.5 188.5q0 85 -41 125.5t-129 40.5h-26q-15 0 -15 14z" />
<glyph unicode="|" horiz-adv-x="446" d="M150 -309l342 1945q4 19 22 19q7 0 11.5 -5.5t2.5 -13.5l-342 -1945q-4 -19 -22 -19q-7 0 -11.5 5.5t-2.5 13.5z" />
<glyph unicode="}" horiz-adv-x="606" d="M74 -285q0 7 6 13t14 6q64 0 108 35t56 104q14 80 30 244t31 243q19 111 80.5 178.5t153.5 67.5q-75 0 -114.5 51t-39.5 136q0 78 59.5 301t59.5 274q0 55 -31.5 83t-85.5 28q-14 0 -14 14q0 6 6 12t15 6q71 0 110 -36.5t39 -102.5q0 -56 -19.5 -136.5t-43 -149.5 t-43 -152.5t-19.5 -145.5q0 -85 41 -125t129 -40h27q14 0 14 -15q0 -6 -5.5 -12t-14.5 -6h-27q-107 0 -164.5 -55.5t-79.5 -176.5q-14 -80 -27.5 -239t-29.5 -246q-13 -81 -68.5 -126.5t-138.5 -45.5q-14 0 -14 14z" />
<glyph unicode="~" horiz-adv-x="976" d="M190 567q0 7 7 17q34 52 93.5 93.5t145.5 41.5q52 0 99.5 -22.5t77.5 -49.5t71.5 -49.5t83.5 -22.5q118 0 207 121q10 13 18 13q6 0 10.5 -4.5t4.5 -10.5t-7 -16q-33 -51 -95 -93t-144 -42q-47 0 -92 22.5t-75 49t-74.5 49t-90.5 22.5q-68 0 -120.5 -35.5t-86.5 -85.5 q-9 -12 -16 -12q-6 0 -11.5 4t-5.5 10z" />
<glyph unicode="&#xa1;" horiz-adv-x="288" d="M45 -428l205 1102q3 14 14 14q13 0 10 -14l-184 -1102q-4 -25 -27 -25q-22 0 -18 25zM270 909q0 49 43 49q29 0 29 -28q0 -51 -43 -51q-29 0 -29 30z" />
<glyph unicode="&#xa2;" horiz-adv-x="907" d="M160 309q0 188 54 331t166 228t271 90l27 148q4 18 20 18q8 0 13 -5.5t4 -12.5l-27 -148q163 -7 250 -110q6 -9 6 -14q0 -6 -4.5 -11.5t-11.5 -5.5t-13 6q-42 49 -98 76t-153 27q-220 0 -343.5 -166.5t-123.5 -444.5q0 -157 76 -233t229 -76q144 0 297 103q9 6 16 6 q6 0 10 -5.5t4 -11.5q0 -9 -8 -14q-144 -105 -307 -111l-31 -174q-4 -18 -22 -18q-8 0 -12 5.5t-3 12.5l31 174q-156 5 -236.5 90t-80.5 246z" />
<glyph unicode="&#xa3;" horiz-adv-x="1196" d="M174 2q0 10 14 21q113 84 187 189t74 220q0 98 -31 189h-137q-13 0 -13 14q0 6 6 12t13 6h121q-2 8 -11.5 36t-13 40.5t-11.5 38.5t-11.5 44t-8 42.5t-6.5 48t-2 47.5q0 199 138 328t360 129q299 0 366 -266q4 -16 4 -25q0 -16 -16 -16q-13 0 -16 16q-21 115 -104 186.5 t-240 71.5q-201 0 -328 -119.5t-127 -304.5q0 -18 1 -36t4 -37t5 -33.5t7 -35t7.5 -31.5t9.5 -33t9.5 -29.5t10 -32t9.5 -29.5h408q14 0 14 -14q0 -7 -6 -12.5t-14 -5.5h-391q28 -89 28 -181q0 -110 -60 -207.5t-142 -164.5q89 49 188 49q55 0 110.5 -18t93.5 -39.5 t87 -39.5t92 -18q83 0 146.5 34.5t119.5 119.5q9 14 21 14q7 0 12.5 -5t5.5 -13q0 -7 -8 -19q-59 -88 -131 -127t-166 -39q-51 0 -103.5 18.5t-90 40t-89 40t-100.5 18.5q-59 0 -109 -14.5t-76.5 -29.5t-70.5 -46q-15 -10 -20 -10q-19 0 -19 18z" />
<glyph unicode="&#xa4;" horiz-adv-x="956" d="M248 242q0 8 8 16l133 135q-88 106 -88 246q0 141 92 248l-137 139q-8 8 -8 16t5.5 13.5t12.5 5.5q11 0 17 -8l135 -140q107 99 248 99t241 -94l133 135q6 8 17 8q7 0 12.5 -5.5t5.5 -13.5t-8 -16l-133 -135q96 -107 96 -252q0 -138 -94 -250l131 -131q8 -8 8 -16 t-5.5 -13.5t-12.5 -5.5q-11 0 -17 8l-129 131q-104 -96 -245 -96q-149 0 -250 101l-133 -136q-6 -8 -17 -8q-7 0 -12.5 5.5t-5.5 13.5zM338 639q0 -142 94 -240t234 -98t233.5 98t93.5 240t-93.5 240t-233.5 98t-234 -98t-94 -240z" />
<glyph unicode="&#xa5;" d="M262 416q0 6 6 12t15 6h295l30 174h-295q-14 0 -14 15q0 6 5.5 12t12.5 6h297l4 25l-317 702q-2 4 -2 8q0 8 5.5 13.5t12.5 5.5q10 0 17 -11l309 -679l545 677q9 13 18 13q8 0 13.5 -5.5t5.5 -13.5t-6 -14l-564 -696l-4 -25h295q15 0 15 -14q0 -6 -6 -12.5t-13 -6.5h-297 l-31 -174h297q13 0 13 -14q0 -6 -6 -12.5t-13 -6.5h-297l-69 -399q-4 -18 -23 -18q-7 0 -11.5 5t-2.5 13l69 399h-295q-14 0 -14 15z" />
<glyph unicode="&#xa6;" horiz-adv-x="446" d="M150 -309l155 889q4 18 23 18q7 0 11.5 -5t2.5 -13l-156 -889q-4 -19 -22 -19q-7 0 -11.5 5.5t-2.5 13.5zM336 748l156 888q4 19 22 19q7 0 11.5 -5.5t2.5 -13.5l-155 -888q-1 -7 -8 -13t-15 -6q-7 0 -11.5 5.5t-2.5 13.5z" />
<glyph unicode="&#xa7;" horiz-adv-x="1032" d="M76 -219q0 16 16 16q11 0 17 -12q13 -25 33.5 -49t57.5 -52t97.5 -45.5t134.5 -17.5q104 0 186.5 29t131 76t73.5 103t25 114q0 55 -22.5 98t-60 71.5t-86.5 52t-103.5 43t-108.5 39t-103 45t-86.5 57t-60 79t-22.5 107.5q0 74 28 136t67 102.5t105 92.5q-78 74 -78 181 q0 70 28.5 133.5t83.5 114.5t145.5 81.5t203.5 30.5q124 0 212.5 -49.5t131.5 -126.5q6 -12 6 -17q0 -7 -5.5 -11.5t-10.5 -4.5q-10 0 -16 12q-100 164 -324 164q-110 0 -193.5 -28.5t-130.5 -76.5t-69.5 -102.5t-22.5 -113.5q0 -69 36 -121t94 -83.5t128 -58l140 -53 t128 -59.5t94 -87t36 -126q0 -106 -54 -184.5t-153 -151.5q82 -75 82 -180q0 -71 -27 -134t-80.5 -114.5t-144.5 -82t-209 -30.5q-125 0 -215.5 50t-130.5 129q-4 8 -4 14zM231 537q0 -73 37.5 -125.5t101.5 -85t132 -56t147.5 -55t128.5 -65.5q195 146 195 311 q0 69 -37.5 119.5t-101.5 83t-132 57t-147.5 57t-128.5 66.5q-195 -138 -195 -307z" />
<glyph unicode="&#xa8;" horiz-adv-x="507" d="M301 1153q0 41 39 41q27 0 27 -25q0 -41 -39 -41q-27 0 -27 25zM551 1153q0 41 39 41q26 0 26 -25q0 -41 -38 -41q-27 0 -27 25z" />
<glyph unicode="&#xa9;" horiz-adv-x="1662" d="M289 688q0 358 177.5 538.5t504.5 180.5t504.5 -180.5t177.5 -538.5q0 -356 -177.5 -536.5t-504.5 -180.5t-504.5 180.5t-177.5 536.5zM326 688q0 -342 167 -513t478 -171t478 171t167 513q0 343 -166.5 514.5t-478.5 171.5t-478.5 -171.5t-166.5 -514.5zM659 688 q0 188 79.5 281.5t230.5 93.5q83 0 138 -25.5t83 -58.5q6 -8 6 -16q0 -6 -4.5 -10.5t-9.5 -4.5q-9 0 -15 6q-72 76 -198 76q-273 0 -273 -342q0 -172 68 -256t205 -84q135 0 211 76q6 6 14 6q5 0 9.5 -4t4.5 -10q0 -7 -6 -15q-30 -32 -90.5 -59t-142.5 -27q-310 0 -310 373z " />
<glyph unicode="&#xaa;" horiz-adv-x="780" d="M205 582q0 6 5.5 12t14.5 6h541q12 0 12 -14q0 -6 -5.5 -12.5t-12.5 -6.5h-541q-14 0 -14 15zM291 973q0 183 101.5 308.5t254.5 125.5q118 0 189 -78l10 55q3 17 18 17q7 0 12 -5.5t3 -11.5l-109 -622q-1 -7 -7.5 -12t-12.5 -5q-7 0 -11 5.5t-2 11.5l33 178 q-12 -33 -33.5 -65.5t-53.5 -64.5t-79.5 -51.5t-101.5 -19.5q-106 0 -158.5 63.5t-52.5 170.5zM326 973q0 -203 182 -203q98 0 180 89.5t105 221.5l36 211q-63 84 -182 84q-141 0 -231 -115t-90 -288z" />
<glyph unicode="&#xab;" horiz-adv-x="950" d="M205 432q0 7 12 19l440 423q7 7 13 7q7 0 11.5 -5.5t4.5 -11.5t-10 -16l-434 -418l282 -412q6 -9 6 -14q0 -16 -16 -16q-9 0 -14 8l-287 418q-8 11 -8 18zM492 432q0 7 12 19l440 423q7 7 12 7q7 0 12 -5.5t5 -11.5t-10 -16l-435 -418l283 -412q6 -9 6 -14q0 -16 -16 -16 q-10 0 -15 8l-286 418q-8 11 -8 18z" />
<glyph unicode="&#xac;" horiz-adv-x="1153" d="M223 600q0 6 6 12t15 6h884q7 0 11 -5t2 -11l-86 -487q-3 -17 -19 -17q-6 0 -10.5 5t-3.5 12l84 471h-868q-15 0 -15 14z" />
<glyph unicode="&#xad;" horiz-adv-x="577" d="M174 514q0 6 6 12t15 6h374q13 0 13 -14q0 -6 -6 -12t-13 -6h-375q-14 0 -14 14z" />
<glyph unicode="&#xae;" horiz-adv-x="772" d="M287 1096q0 156 78 233.5t221 77.5q146 0 223.5 -77t77.5 -234t-78 -235.5t-223 -78.5q-143 0 -221 78.5t-78 235.5zM317 1096q0 -285 269 -285q270 0 270 285q0 282 -270 282q-269 0 -269 -282zM479 950v283q0 9 7 15.5t16 6.5h108q45 0 70 -27t25 -67 q0 -38 -23.5 -64.5t-60.5 -29.5l69 -100q8 -11 8 -17t-5 -11t-11 -5q-9 0 -14 8l-84 125h-72v-117q0 -16 -16 -16q-7 0 -12 5t-5 11zM512 1098h98q27 0 43.5 18.5t16.5 44.5q0 28 -16.5 46t-43.5 18h-98v-127z" />
<glyph unicode="&#xaf;" horiz-adv-x="782" d="M365 1159q0 7 6 13t14 6h430q12 0 12 -15q0 -6 -5.5 -12t-12.5 -6h-430q-14 0 -14 14z" />
<glyph unicode="&#xb0;" horiz-adv-x="729" d="M289 1126q0 117 81.5 199t198.5 82t199 -82t82 -199t-82 -198.5t-199 -81.5t-198.5 81.5t-81.5 198.5zM322 1124q0 -103 70 -175t175 -72t177.5 72.5t72.5 174.5t-72.5 177t-177.5 75q-104 0 -174.5 -74.5t-70.5 -177.5z" />
<glyph unicode="&#xb1;" horiz-adv-x="909" d="M2 14q0 6 6 12.5t15 6.5h876q12 0 12 -15q0 -6 -5.5 -12t-12.5 -6h-877q-14 0 -14 14zM111 625q0 6 5.5 12t12.5 6h422l76 432q1 7 7.5 12t12.5 5q15 0 12 -17l-75 -432h422q14 0 14 -14q0 -7 -6 -13t-15 -6h-421l-76 -430q-3 -16 -19 -16q-7 0 -11 4.5t-3 11.5l76 430 h-422q-12 0 -12 15z" />
<glyph unicode="&#xb2;" horiz-adv-x="530" d="M215 885q6 44 28.5 80.5t55 62t72.5 50t80.5 43.5t79 43t68 48.5t47.5 59.5t18 76q0 52 -35.5 85t-108.5 33q-60 0 -98 -23.5t-68 -74.5q-7 -12 -16 -12q-12 0 -12 12q0 6 4 14q58 113 196 113q81 0 125.5 -40.5t44.5 -102.5q0 -60 -31 -108t-78 -77.5t-103 -60t-105 -56 t-86 -65t-45 -86.5h354q12 0 12 -12q0 -6 -5 -11.5t-11 -5.5h-373q-10 0 -10 15z" />
<glyph unicode="&#xb3;" horiz-adv-x="520" d="M217 971q0 14 14 14q10 0 15 -10q43 -88 151 -88q221 0 221 192q0 60 -36 94.5t-111 34.5h-47q-12 0 -12 13q0 6 10 16l223 217h-295q-12 0 -12 12q0 6 4.5 11.5t11.5 5.5h324q14 0 14 -13q0 -8 -8 -16l-225 -217h20q89 0 130.5 -44t41.5 -112q0 -100 -60.5 -161.5 t-197.5 -61.5q-68 0 -112 29.5t-60 68.5q-4 8 -4 15z" />
<glyph unicode="&#xb4;" horiz-adv-x="757" d="M449 1073q-9 9 2 21l247 245q20 20 35 2q15 -17 -6 -34l-258 -232q-11 -11 -20 -2z" />
<glyph unicode="&#xb5;" horiz-adv-x="1003" d="M74 -401l233 1329q4 18 23 18q7 0 11.5 -5t2.5 -13l-106 -611q-9 -50 -9 -81q0 -228 275 -228q323 0 377 309l106 611q4 18 23 18q7 0 11.5 -5t2.5 -13l-104 -592q-11 -62 -28.5 -112t-50 -98.5t-77.5 -81t-112.5 -52t-153.5 -19.5q-69 0 -122 15t-86.5 42t-53.5 58.5 t-29 69.5l-96 -559q-1 -7 -8 -13t-15 -6q-7 0 -11.5 5.5t-2.5 13.5z" />
<glyph unicode="&#xb6;" horiz-adv-x="888" d="M43 -27q0 5 4.5 10t11.5 5q5 0 17 -4q52 -19 108 -19q147 0 242 110.5t129 299.5l63 360h-122q-117 0 -193 79t-76 196q0 147 116.5 257.5t264.5 110.5h422q14 0 14 -14q0 -6 -6 -12t-14 -6h-66l-145 -830q-24 -138 -69.5 -241.5t-103 -168t-133.5 -104.5t-154 -55 t-173 -15q-73 0 -125 25q-12 6 -12 16zM354 -20q166 35 272.5 163.5t149.5 372.5l146 830h-160l-170 -965q-26 -147 -81 -244.5t-157 -156.5z" />
<glyph unicode="&#xb7;" horiz-adv-x="335" d="M238 604q0 51 43 51q28 0 28 -30q0 -50 -43 -50q-28 0 -28 29z" />
<glyph unicode="&#xb8;" horiz-adv-x="645" d="M96 -406q0 15 15 15q5 0 14 -6q37 -29 94 -29q91 0 134.5 45t43.5 121q0 54 -32.5 79t-79.5 25q-24 0 -48 -5t-26 -5q-17 0 -14 19l34 147h29l-35 -139q31 10 64 10q68 0 103.5 -32t35.5 -93q0 -90 -51.5 -145.5t-161.5 -55.5q-35 0 -69 13.5t-46 25.5q-4 4 -4 10z" />
<glyph unicode="&#xb9;" horiz-adv-x="321" d="M270 1366q0 8 11 14l168 101q13 8 18 8q6 0 9.5 -5t2.5 -11l-104 -592q-3 -17 -19 -17q-6 0 -10.5 5t-3.5 12l100 563l-143 -86q-9 -6 -14 -6q-15 0 -15 14z" />
<glyph unicode="&#xba;" horiz-adv-x="681" d="M156 582q0 6 6 12t14 6h541q12 0 12 -14q0 -6 -5.5 -12.5t-12.5 -6.5h-541q-14 0 -14 15zM242 967q0 63 10.5 123t36 118.5t63.5 102t98.5 70t135.5 26.5q227 0 227 -227q0 -81 -18 -155t-56 -140t-107.5 -106t-162.5 -40q-227 0 -227 228zM276 971q0 -201 197 -201 q82 0 143 35.5t95 95.5t50.5 129t16.5 146q0 200 -196 200q-82 0 -143 -35t-95.5 -95t-51 -129t-16.5 -146z" />
<glyph unicode="&#xbb;" horiz-adv-x="950" d="M129 4q0 6 10 16l434 418l-282 412q-6 9 -6 14q0 6 4.5 11.5t11.5 5.5q8 0 14 -9l287 -417q8 -11 8 -19q0 -6 -12 -18l-440 -424q-6 -6 -13 -6q-16 0 -16 16zM416 4q0 6 10 16l434 418l-282 412q-7 10 -7 14q0 6 5 11.5t12 5.5q8 0 14 -9l287 -417q8 -11 8 -19 q0 -6 -12 -18l-441 -424q-6 -6 -12 -6q-16 0 -16 16z" />
<glyph unicode="&#xbc;" horiz-adv-x="960" d="M180 2q0 4 6 16l770 1364q6 13 19 13q7 0 12.5 -5.5t5.5 -13.5q0 -4 -8 -20l-768 -1360q-6 -12 -18 -12q-8 0 -13.5 5.5t-5.5 12.5zM311 1278q0 8 11 14l167 101q13 8 19 8t10 -5.5t2 -11.5l-104 -591q-3 -17 -19 -17q-6 0 -10.5 5t-3.5 12l100 563l-143 -86 q-9 -6 -14 -6q-15 0 -15 14zM465 152q0 6 10 16l383 428q12 12 21 12q16 0 12 -16l-74 -424h62q12 0 12 -12q0 -6 -5.5 -11.5t-11.5 -5.5h-63l-25 -139q-3 -16 -20 -16q-15 0 -12 16l24 139h-301q-12 0 -12 13zM512 168h270l68 377z" />
<glyph unicode="&#xbd;" horiz-adv-x="1044" d="M180 2q0 4 6 16l770 1364q6 13 19 13q7 0 12.5 -5.5t5.5 -13.5q0 -4 -8 -20l-768 -1360q-6 -12 -18 -12q-8 0 -13.5 5.5t-5.5 12.5zM311 1278q0 8 11 14l167 101q13 8 19 8t10 -5.5t2 -11.5l-104 -591q-3 -17 -19 -17q-6 0 -10.5 5t-3.5 12l100 563l-143 -86 q-9 -6 -14 -6q-15 0 -15 14zM578 14q6 49 34.5 90t68 68.5t86.5 53t92.5 49.5t83 51t60.5 65.5t23 85.5q0 52 -35 85.5t-108 33.5q-60 0 -98 -23.5t-68 -74.5q-8 -13 -17 -13q-12 0 -12 13q0 6 4 14q58 113 197 113q81 0 125.5 -41t44.5 -103q0 -70 -43 -123.5t-106 -88 t-127 -66t-114 -75.5t-59 -99h355q12 0 12 -13q0 -6 -5 -11t-11 -5h-373q-10 0 -10 14z" />
<glyph unicode="&#xbe;" horiz-adv-x="1071" d="M203 883q0 14 14 14q9 0 14 -10q43 -88 152 -88q221 0 221 192q0 60 -36 94.5t-111 34.5h-47q-13 0 -13 13q0 5 11 16l223 217h-295q-12 0 -12 12q0 6 4.5 11.5t11.5 5.5h324q14 0 14 -13q0 -8 -8 -16l-226 -217h21q89 0 130.5 -44t41.5 -112q0 -100 -60.5 -161.5 t-197.5 -61.5q-68 0 -112 29.5t-60 68.5q-4 8 -4 15zM293 2q0 4 6 16l770 1364q7 13 18 13q7 0 13 -5.5t6 -13.5q0 -4 -8 -20l-768 -1360q-6 -12 -19 -12q-7 0 -12.5 5t-5.5 13zM578 152q0 6 10 16l383 428q12 12 20 12q7 0 11 -5t2 -11l-74 -424h61q13 0 13 -12 q0 -6 -5.5 -11.5t-11.5 -5.5h-63l-25 -139q-3 -16 -20 -16q-16 0 -13 16l25 139h-301q-12 0 -12 13zM625 168h270l68 377z" />
<glyph unicode="&#xbf;" horiz-adv-x="944" d="M70 -174q0 78 20 144t54 112.5t78 85.5t92.5 69.5t96.5 58t92 56.5t78 60t54 73.5t20 92.5q0 54 -30 100q-7 10 -7 14q0 8 6 13.5t13 5.5q9 0 16 -11q39 -59 39 -120q0 -69 -32.5 -124.5t-84 -93.5t-114 -73.5t-125 -76t-114 -89t-84 -123.5t-32.5 -170 q0 -121 76.5 -191.5t223.5 -70.5q168 0 266 85t123 238q3 19 18 19q9 0 13.5 -6.5t2.5 -14.5q-9 -54 -26 -101.5t-50.5 -95t-79.5 -81.5t-116.5 -55t-157.5 -21q-159 0 -244 77.5t-85 213.5zM657 909q0 49 43 49q29 0 29 -28q0 -51 -43 -51q-29 0 -29 30z" />
<glyph unicode="&#xc0;" horiz-adv-x="1236" d="M63 0q0 6 5 14l778 1368q6 13 16 13q12 0 15 -13l297 -1372q4 -26 -19 -26q-15 0 -18 16l-99 455h-678l-260 -459q-7 -12 -20 -12q-6 0 -11.5 5t-5.5 11zM379 487h653l-178 842zM756 1724q-15 19 4 33q20 14 31 -4l163 -244q8 -11 -4 -20q-11 -8 -18 2z" />
<glyph unicode="&#xc1;" horiz-adv-x="1236" d="M63 0q0 6 5 14l778 1368q6 13 16 13q12 0 15 -13l297 -1372q4 -26 -19 -26q-15 0 -18 16l-99 455h-678l-260 -459q-7 -12 -20 -12q-6 0 -11.5 5t-5.5 11zM379 487h653l-178 842zM793 1489q-9 9 2 20l247 246q20 20 35 2q15 -17 -6 -35l-258 -231q-11 -11 -20 -2z" />
<glyph unicode="&#xc2;" horiz-adv-x="1236" d="M63 0q0 6 5 14l778 1368q6 13 16 13q12 0 15 -13l297 -1372q4 -26 -19 -26q-15 0 -18 16l-99 455h-678l-260 -459q-7 -12 -20 -12q-6 0 -11.5 5t-5.5 11zM379 487h653l-178 842zM653 1534q0 10 13 18l237 164q11 8 19 8q7 0 18 -8l178 -168q6 -6 6 -12t-5 -11t-11 -5 t-12 6l-176 164l-236 -164q-9 -6 -14 -6q-6 0 -11.5 4t-5.5 10z" />
<glyph unicode="&#xc3;" horiz-adv-x="1236" d="M63 0q0 6 5 14l778 1368q6 13 16 13q12 0 15 -13l297 -1372q4 -26 -19 -26q-15 0 -18 16l-99 455h-678l-260 -459q-7 -12 -20 -12q-6 0 -11.5 5t-5.5 11zM379 487h653l-178 842zM614 1532q0 3 7 14q59 88 155 88q52 0 125 -43t123 -43q71 0 119 70q11 16 20 16 q6 0 11.5 -5t5.5 -11q0 -5 -6 -14q-59 -88 -156 -88q-48 0 -89 21.5t-80 43t-79 21.5q-39 0 -65.5 -17t-53.5 -53q-11 -16 -20 -16q-6 0 -11.5 5t-5.5 11z" />
<glyph unicode="&#xc4;" horiz-adv-x="1236" d="M63 0q0 6 5 14l778 1368q6 13 16 13q12 0 15 -13l297 -1372q4 -26 -19 -26q-15 0 -18 16l-99 455h-678l-260 -459q-7 -12 -20 -12q-6 0 -11.5 5t-5.5 11zM379 487h653l-178 842zM737 1556q0 41 39 41q27 0 27 -24q0 -41 -39 -41q-27 0 -27 24zM987 1556q0 41 39 41 q27 0 27 -24q0 -41 -39 -41q-27 0 -27 24z" />
<glyph unicode="&#xc5;" horiz-adv-x="1236" d="M63 0q0 6 5 14l778 1368q6 13 16 13q12 0 15 -13l297 -1372q4 -26 -19 -26q-15 0 -18 16l-99 455h-678l-260 -459q-7 -12 -20 -12q-6 0 -11.5 5t-5.5 11zM379 487h653l-178 842zM692 1599q0 108 60.5 172t183.5 64q85 0 129.5 -41t44.5 -113q0 -109 -59 -172t-185 -63 q-87 0 -130.5 40t-43.5 113zM725 1604q0 -127 147 -127q205 0 205 200q0 127 -147 127q-107 0 -156 -54.5t-49 -145.5z" />
<glyph unicode="&#xc6;" horiz-adv-x="1703" d="M23 2q0 8 6 14l1071 1350q10 12 22 12h697q12 0 12 -14q0 -6 -6 -12t-13 -6h-679l-113 -635h534q15 0 15 -15q0 -6 -6 -12t-15 -6h-534l-113 -645h705q14 0 14 -15q0 -6 -6 -12t-15 -6h-722q-8 0 -12 5.5t-3 12.5l78 437h-516l-365 -459q-8 -12 -18 -12q-7 0 -12.5 5 t-5.5 13zM446 487h498l143 809z" />
<glyph unicode="&#xc7;" horiz-adv-x="1288" d="M199 473q0 202 51.5 372.5t147.5 295.5t241.5 195.5t325.5 70.5q144 0 254 -56.5t163 -154.5q2 -4 2 -10q0 -8 -5.5 -13.5t-12.5 -5.5q-10 0 -16 11q-44 88 -148.5 142t-243.5 54q-172 0 -310.5 -69.5t-227.5 -191t-136.5 -283.5t-47.5 -349q0 -477 481 -477 q137 0 264 55.5t205 143.5q8 8 16 8t13.5 -5.5t5.5 -12.5q0 -8 -7 -15q-210 -207 -503 -207h-27l-27 -110q31 10 64 10q68 0 103.5 -32t35.5 -93q0 -90 -51.5 -145.5t-161.5 -55.5q-35 0 -69 13.5t-46 25.5q-4 4 -4 10q0 15 15 15q5 0 14 -6q37 -29 94 -29q91 0 134.5 45 t43.5 121q0 54 -32.5 79t-79.5 25q-24 0 -48 -5t-26 -5q-17 0 -14 19l28 120q-224 12 -341 138t-117 362z" />
<glyph unicode="&#xc8;" d="M199 18l235 1342q4 18 21 18h700q14 0 14 -14q0 -6 -5.5 -12t-14.5 -6h-680l-113 -635h535q14 0 14 -15q0 -7 -5 -12.5t-13 -5.5h-535l-114 -645h704q14 0 14 -15q0 -6 -6 -12t-14 -6h-725q-16 0 -12 18zM729 1724q-15 19 4 33q20 14 31 -4l164 -244q8 -11 -4 -20t-19 2z " />
<glyph unicode="&#xc9;" d="M199 18l235 1342q4 18 21 18h700q14 0 14 -14q0 -6 -5.5 -12t-14.5 -6h-680l-113 -635h535q14 0 14 -15q0 -7 -5 -12.5t-13 -5.5h-535l-114 -645h704q14 0 14 -15q0 -6 -6 -12t-14 -6h-725q-16 0 -12 18zM727 1489q-9 9 2 20l248 246q20 20 35 2q15 -17 -6 -35l-258 -231 q-12 -11 -21 -2z" />
<glyph unicode="&#xca;" d="M199 18l235 1342q4 18 21 18h700q14 0 14 -14q0 -6 -5.5 -12t-14.5 -6h-680l-113 -635h535q14 0 14 -15q0 -7 -5 -12.5t-13 -5.5h-535l-114 -645h704q14 0 14 -15q0 -6 -6 -12t-14 -6h-725q-16 0 -12 18zM610 1534q0 10 13 18l237 164q11 8 19 8q7 0 18 -8l178 -168 q6 -6 6 -12t-5 -11t-11 -5t-12 6l-176 164l-236 -164q-9 -6 -14 -6q-6 0 -11.5 4t-5.5 10z" />
<glyph unicode="&#xcb;" d="M199 18l235 1342q4 18 21 18h700q14 0 14 -14q0 -6 -5.5 -12t-14.5 -6h-680l-113 -635h535q14 0 14 -15q0 -7 -5 -12.5t-13 -5.5h-535l-114 -645h704q14 0 14 -15q0 -6 -6 -12t-14 -6h-725q-16 0 -12 18zM694 1556q0 41 39 41q27 0 27 -24q0 -41 -39 -41q-27 0 -27 24z M944 1556q0 41 39 41q27 0 27 -24q0 -41 -39 -41q-27 0 -27 24z" />
<glyph unicode="&#xcc;" horiz-adv-x="415" d="M184 2l242 1374q4 19 23 19q7 0 11.5 -5.5t2.5 -13.5l-242 -1374q-4 -18 -22 -18q-8 0 -12 5.5t-3 12.5zM344 1724q-15 19 4 33q20 14 31 -4l164 -244q8 -11 -4 -20t-19 2z" />
<glyph unicode="&#xcd;" horiz-adv-x="425" d="M195 2l241 1374q4 19 23 19q7 0 11.5 -5.5t2.5 -13.5l-242 -1374q-4 -18 -22 -18q-7 0 -11.5 5t-2.5 13zM418 1489q-9 9 2 20l248 246q19 19 34 2t-6 -35l-258 -231q-11 -11 -20 -2z" />
<glyph unicode="&#xce;" horiz-adv-x="425" d="M195 2l241 1374q4 19 23 19q7 0 11.5 -5.5t2.5 -13.5l-242 -1374q-4 -18 -22 -18q-7 0 -11.5 5t-2.5 13zM248 1532q0 11 12 18l238 164q11 8 18 8q8 0 19 -8l178 -168q6 -6 6 -12t-5.5 -11t-11.5 -5t-12 6l-176 164l-235 -164q-9 -6 -15 -6t-11 4t-5 10z" />
<glyph unicode="&#xcf;" horiz-adv-x="425" d="M195 2l241 1374q4 19 23 19q7 0 11.5 -5.5t2.5 -13.5l-242 -1374q-4 -18 -22 -18q-7 0 -11.5 5t-2.5 13zM330 1556q0 41 39 41q26 0 26 -24q0 -41 -39 -41q-26 0 -26 24zM580 1556q0 41 38 41q27 0 27 -24q0 -41 -39 -41q-26 0 -26 24z" />
<glyph unicode="&#xd0;" horiz-adv-x="1234" d="M186 715q0 6 6 12t15 6h117l110 627q4 18 23 18h301q254 0 387 -114.5t133 -362.5q0 -218 -55 -389.5t-155.5 -283t-241 -170t-312.5 -58.5h-301q-7 0 -11.5 5t-2.5 13l118 682h-116q-15 0 -15 15zM238 33h282q329 0 525 229.5t196 632.5q0 236 -125 343.5t-364 107.5 h-283l-109 -613h492q12 0 12 -14q0 -6 -5.5 -12.5t-12.5 -6.5h-492z" />
<glyph unicode="&#xd1;" horiz-adv-x="1267" d="M174 2l242 1374q4 19 22 19q8 0 15 -11l614 -1321l231 1313q1 7 8 13t15 6q7 0 11.5 -5.5t2.5 -13.5l-241 -1374q-4 -18 -23 -18q-13 0 -16 10l-613 1329l-231 -1321q-4 -18 -23 -18q-7 0 -11.5 5t-2.5 13zM649 1532q0 5 6 14q59 88 156 88q43 0 84.5 -21.5t81.5 -43 t82 -21.5q71 0 119 70q11 16 20 16q6 0 11 -5t5 -11q0 -5 -6 -14q-59 -88 -155 -88q-47 0 -88.5 21.5t-80.5 43t-79 21.5q-39 0 -65.5 -17t-53.5 -53q-11 -16 -20 -16q-6 0 -11.5 5t-5.5 11z" />
<glyph unicode="&#xd2;" horiz-adv-x="1433" d="M199 473q0 138 26 268t85 252t145.5 213t217 146t290.5 55q251 0 381.5 -126t130.5 -376q0 -138 -26 -268t-85 -252t-145.5 -213t-217 -146t-290.5 -55q-251 0 -381.5 126t-130.5 376zM236 481q0 -477 481 -477q146 0 267 49.5t204 134t140 199.5t83.5 243t26.5 267 q0 477 -482 477q-146 0 -267 -49.5t-204 -134t-140 -199.5t-83 -243t-26 -267zM881 1724q-15 19 4 33t30 -4l164 -244q8 -11 -4 -20q-11 -8 -18 2z" />
<glyph unicode="&#xd3;" horiz-adv-x="1433" d="M199 473q0 138 26 268t85 252t145.5 213t217 146t290.5 55q251 0 381.5 -126t130.5 -376q0 -138 -26 -268t-85 -252t-145.5 -213t-217 -146t-290.5 -55q-251 0 -381.5 126t-130.5 376zM236 481q0 -477 481 -477q146 0 267 49.5t204 134t140 199.5t83.5 243t26.5 267 q0 477 -482 477q-146 0 -267 -49.5t-204 -134t-140 -199.5t-83 -243t-26 -267zM911 1489q-9 9 2 20l248 246q20 20 35 2q15 -17 -6 -35l-258 -231q-12 -11 -21 -2z" />
<glyph unicode="&#xd4;" horiz-adv-x="1433" d="M199 473q0 138 26 268t85 252t145.5 213t217 146t290.5 55q251 0 381.5 -126t130.5 -376q0 -138 -26 -268t-85 -252t-145.5 -213t-217 -146t-290.5 -55q-251 0 -381.5 126t-130.5 376zM236 481q0 -477 481 -477q146 0 267 49.5t204 134t140 199.5t83.5 243t26.5 267 q0 477 -482 477q-146 0 -267 -49.5t-204 -134t-140 -199.5t-83 -243t-26 -267zM793 1534q0 11 12 18l237 164q11 8 19 8q7 0 18 -8l178 -168q7 -7 7 -12q0 -6 -5.5 -11t-11.5 -5t-12 6l-176 164l-236 -164q-9 -6 -14 -6q-6 0 -11 4t-5 10z" />
<glyph unicode="&#xd5;" horiz-adv-x="1433" d="M199 473q0 138 26 268t85 252t145.5 213t217 146t290.5 55q251 0 381.5 -126t130.5 -376q0 -138 -26 -268t-85 -252t-145.5 -213t-217 -146t-290.5 -55q-251 0 -381.5 126t-130.5 376zM236 481q0 -477 481 -477q146 0 267 49.5t204 134t140 199.5t83.5 243t26.5 267 q0 477 -482 477q-146 0 -267 -49.5t-204 -134t-140 -199.5t-83 -243t-26 -267zM713 1532q0 5 6 14q59 88 155 88q52 0 125 -43t123 -43q71 0 119 70q11 16 21 16q6 0 11 -5t5 -11q0 -5 -6 -14q-59 -88 -156 -88q-47 0 -88.5 21.5t-80.5 43t-79 21.5q-39 0 -65 -17t-53 -53 q-11 -16 -21 -16q-6 0 -11 5t-5 11z" />
<glyph unicode="&#xd6;" horiz-adv-x="1433" d="M199 473q0 138 26 268t85 252t145.5 213t217 146t290.5 55q251 0 381.5 -126t130.5 -376q0 -138 -26 -268t-85 -252t-145.5 -213t-217 -146t-290.5 -55q-251 0 -381.5 126t-130.5 376zM236 481q0 -477 481 -477q146 0 267 49.5t204 134t140 199.5t83.5 243t26.5 267 q0 477 -482 477q-146 0 -267 -49.5t-204 -134t-140 -199.5t-83 -243t-26 -267zM842 1556q0 41 39 41q26 0 26 -24q0 -41 -39 -41q-26 0 -26 24zM1092 1556q0 41 38 41q27 0 27 -24q0 -41 -39 -41q-26 0 -26 24z" />
<glyph unicode="&#xd7;" horiz-adv-x="702" d="M20 119q0 9 9 16l374 316l-262 309q-6 6 -6 14t5.5 13.5t13.5 5.5q7 0 14 -7l264 -311l375 311q7 7 14 7t13 -5.5t6 -13.5t-6 -14l-379 -314l262 -313q6 -6 6 -14t-5.5 -13.5t-12.5 -5.5q-9 0 -15 6l-266 314l-371 -314q-6 -6 -14 -6q-7 0 -13 6t-6 13z" />
<glyph unicode="&#xd8;" horiz-adv-x="1433" d="M127 -33q0 7 8 15l154 159q-90 125 -90 332q0 138 26 268t85 252t145.5 213t217 146t290.5 55q272 0 401 -147l154 159q8 8 14 8q16 0 16 -16q0 -6 -8 -14l-156 -162q91 -126 91 -330q0 -138 -26 -268t-85 -252t-145.5 -213t-217 -146t-290.5 -55q-271 0 -402 146 l-151 -158q-8 -8 -15 -8q-16 0 -16 16zM236 481q0 -198 79 -311l1022 1063q-120 141 -381 141q-146 0 -267 -49.5t-204 -134t-140 -199.5t-83 -243t-26 -267zM336 143q118 -139 381 -139q146 0 267 49.5t204 134t140 199.5t83.5 243t26.5 267q0 194 -80 309z" />
<glyph unicode="&#xd9;" horiz-adv-x="1280" d="M252 266q0 54 10 115l174 995q1 7 8 13t15 6q7 0 11.5 -5.5t2.5 -13.5l-174 -995q-10 -62 -10 -109q0 -127 81.5 -196.5t282.5 -69.5q101 0 180 20t130 52.5t87.5 82.5t55.5 102t31 118l174 995q4 19 22 19q7 0 12 -5.5t3 -13.5l-174 -995q-9 -50 -21 -91t-32 -84.5 t-47 -77t-67 -64t-90.5 -50.5t-119 -31.5t-150.5 -11.5q-112 0 -191.5 22t-122.5 63.5t-62 92.5t-19 117zM842 1724q-15 19 4 33q20 14 31 -4l163 -244q8 -11 -4 -20q-11 -8 -18 2z" />
<glyph unicode="&#xda;" horiz-adv-x="1280" d="M252 266q0 54 10 115l174 995q1 7 8 13t15 6q7 0 11.5 -5.5t2.5 -13.5l-174 -995q-10 -62 -10 -109q0 -127 81.5 -196.5t282.5 -69.5q101 0 180 20t130 52.5t87.5 82.5t55.5 102t31 118l174 995q4 19 22 19q7 0 12 -5.5t3 -13.5l-174 -995q-9 -50 -21 -91t-32 -84.5 t-47 -77t-67 -64t-90.5 -50.5t-119 -31.5t-150.5 -11.5q-112 0 -191.5 22t-122.5 63.5t-62 92.5t-19 117zM823 1489q-9 9 2 20l248 246q20 20 35 2q15 -17 -6 -35l-258 -231q-12 -11 -21 -2z" />
<glyph unicode="&#xdb;" horiz-adv-x="1280" d="M252 266q0 54 10 115l174 995q1 7 8 13t15 6q7 0 11.5 -5.5t2.5 -13.5l-174 -995q-10 -62 -10 -109q0 -127 81.5 -196.5t282.5 -69.5q101 0 180 20t130 52.5t87.5 82.5t55.5 102t31 118l174 995q4 19 22 19q7 0 12 -5.5t3 -13.5l-174 -995q-9 -50 -21 -91t-32 -84.5 t-47 -77t-67 -64t-90.5 -50.5t-119 -31.5t-150.5 -11.5q-112 0 -191.5 22t-122.5 63.5t-62 92.5t-19 117zM696 1534q0 10 13 18l237 164q11 8 19 8q7 0 18 -8l178 -168q6 -6 6 -12t-5 -11t-11 -5t-12 6l-176 164l-236 -164q-9 -6 -14 -6q-6 0 -11.5 4t-5.5 10z" />
<glyph unicode="&#xdc;" horiz-adv-x="1280" d="M252 266q0 54 10 115l174 995q1 7 8 13t15 6q7 0 11.5 -5.5t2.5 -13.5l-174 -995q-10 -62 -10 -109q0 -127 81.5 -196.5t282.5 -69.5q101 0 180 20t130 52.5t87.5 82.5t55.5 102t31 118l174 995q4 19 22 19q7 0 12 -5.5t3 -13.5l-174 -995q-9 -50 -21 -91t-32 -84.5 t-47 -77t-67 -64t-90.5 -50.5t-119 -31.5t-150.5 -11.5q-112 0 -191.5 22t-122.5 63.5t-62 92.5t-19 117zM770 1556q0 41 39 41q27 0 27 -24q0 -41 -39 -41q-27 0 -27 24zM1020 1556q0 41 39 41q26 0 26 -24q0 -41 -38 -41q-27 0 -27 24z" />
<glyph unicode="&#xdd;" d="M299 1376q0 8 5.5 13.5t12.5 5.5q10 0 17 -11l309 -679l545 677q9 13 18 13q8 0 13.5 -5.5t5.5 -13.5t-6 -14l-564 -696l-116 -664q-4 -18 -23 -18q-7 0 -11.5 5t-2.5 13l116 664l-317 702q-2 4 -2 8zM723 1489q-9 9 2 20l248 246q20 20 35 2q15 -17 -7 -35l-258 -231 q-11 -11 -20 -2z" />
<glyph unicode="&#xde;" horiz-adv-x="1093" d="M195 2l241 1374q4 19 23 19q7 0 11.5 -5.5t2.5 -13.5l-49 -274h395q142 0 225.5 -81.5t83.5 -221.5q0 -202 -123 -334.5t-321 -132.5h-395l-58 -330q-4 -18 -22 -18q-7 0 -11.5 5t-2.5 13zM295 365h391q183 0 294.5 124t111.5 302q0 130 -72.5 204t-204.5 74h-397z" />
<glyph unicode="&#xdf;" horiz-adv-x="1064" d="M-170 -397q0 7 5 12.5t13 5.5q145 0 232.5 80.5t114.5 228.5l170 967h-129q-15 0 -15 14q0 7 5.5 13t15.5 6h129l22 131q28 158 116 250t243 92q101 0 161 -56t60 -143q0 -61 -23 -109t-59.5 -79t-80.5 -57t-88 -49.5t-80.5 -50t-59.5 -65.5t-23 -89q0 -48 28 -84.5 t73 -59.5t99 -43t108 -41t99 -47.5t73 -69t28 -98.5q0 -139 -103.5 -214t-273.5 -75q-115 0 -194 41.5t-115 94.5q-6 9 -6 16q0 16 16 16q10 0 15 -8q39 -58 112.5 -92.5t177.5 -34.5q150 0 242 65t92 185q0 51 -28 90t-73 63t-99 44.5l-108 41t-99 45.5t-73 65t-28 93 q0 58 23 102.5t59.5 73t80.5 53t88 48.5t80.5 52.5t59.5 73t23 101.5q0 77 -52.5 122.5t-135.5 45.5q-130 0 -210.5 -80t-107.5 -229l-199 -1131q-28 -155 -125 -248.5t-262 -93.5q-14 0 -14 15z" />
<glyph unicode="&#xe0;" horiz-adv-x="995" d="M141 319q0 175 68 321t188.5 231t268.5 85q87 0 159 -32t119 -84l14 88q4 18 21 18q9 0 13.5 -5t2.5 -13l-164 -926q-4 -18 -22 -18q-7 0 -11.5 5t-2.5 13l51 268q-17 -48 -51 -97.5t-83 -95.5t-117 -75t-142 -29q-157 0 -234.5 93.5t-77.5 252.5zM178 319 q0 -148 68 -230.5t213 -82.5t266.5 131t153.5 324l57 344q-106 119 -270 119q-138 0 -250 -81t-175 -219.5t-63 -304.5zM643 1309q-15 19 4 32q20 14 31 -4l164 -243q8 -12 -4 -21t-19 2z" />
<glyph unicode="&#xe1;" horiz-adv-x="995" d="M141 319q0 175 68 321t188.5 231t268.5 85q87 0 159 -32t119 -84l14 88q4 18 21 18q9 0 13.5 -5t2.5 -13l-164 -926q-4 -18 -22 -18q-7 0 -11.5 5t-2.5 13l51 268q-17 -48 -51 -97.5t-83 -95.5t-117 -75t-142 -29q-157 0 -234.5 93.5t-77.5 252.5zM178 319 q0 -148 68 -230.5t213 -82.5t266.5 131t153.5 324l57 344q-106 119 -270 119q-138 0 -250 -81t-175 -219.5t-63 -304.5zM680 1073q-10 9 2 21l248 245q20 20 35 2q14 -16 -7 -34l-258 -232q-11 -11 -20 -2z" />
<glyph unicode="&#xe2;" horiz-adv-x="995" d="M141 319q0 175 68 321t188.5 231t268.5 85q87 0 159 -32t119 -84l14 88q4 18 21 18q9 0 13.5 -5t2.5 -13l-164 -926q-4 -18 -22 -18q-7 0 -11.5 5t-2.5 13l51 268q-17 -48 -51 -97.5t-83 -95.5t-117 -75t-142 -29q-157 0 -234.5 93.5t-77.5 252.5zM178 319 q0 -148 68 -230.5t213 -82.5t266.5 131t153.5 324l57 344q-106 119 -270 119q-138 0 -250 -81t-175 -219.5t-63 -304.5zM494 1141q0 11 12 18l237 164q11 8 19 8q7 0 18 -8l178 -168q7 -7 7 -12q0 -6 -5.5 -11.5t-11.5 -5.5q-5 0 -12 7l-176 163l-236 -163q-11 -7 -14 -7 q-6 0 -11 4.5t-5 10.5z" />
<glyph unicode="&#xe3;" horiz-adv-x="995" d="M141 319q0 175 68 321t188.5 231t268.5 85q87 0 159 -32t119 -84l14 88q4 18 21 18q9 0 13.5 -5t2.5 -13l-164 -926q-4 -18 -22 -18q-7 0 -11.5 5t-2.5 13l51 268q-17 -48 -51 -97.5t-83 -95.5t-117 -75t-142 -29q-157 0 -234.5 93.5t-77.5 252.5zM178 319 q0 -148 68 -230.5t213 -82.5t266.5 131t153.5 324l57 344q-106 119 -270 119q-138 0 -250 -81t-175 -219.5t-63 -304.5zM453 1130q0 6 6 15q59 88 155 88q52 0 125 -43t123 -43q71 0 119 70q11 16 20 16q6 0 11.5 -5t5.5 -11t-6 -15q-59 -88 -156 -88q-48 0 -89 21.5t-80 43 t-79 21.5q-39 0 -65.5 -17t-53.5 -53q-11 -16 -20 -16q-6 0 -11 5t-5 11z" />
<glyph unicode="&#xe4;" horiz-adv-x="995" d="M141 319q0 175 68 321t188.5 231t268.5 85q87 0 159 -32t119 -84l14 88q4 18 21 18q9 0 13.5 -5t2.5 -13l-164 -926q-4 -18 -22 -18q-7 0 -11.5 5t-2.5 13l51 268q-17 -48 -51 -97.5t-83 -95.5t-117 -75t-142 -29q-157 0 -234.5 93.5t-77.5 252.5zM178 319 q0 -148 68 -230.5t213 -82.5t266.5 131t153.5 324l57 344q-106 119 -270 119q-138 0 -250 -81t-175 -219.5t-63 -304.5zM573 1153q0 41 39 41q27 0 27 -25q0 -41 -39 -41q-27 0 -27 25zM823 1153q0 41 39 41q27 0 27 -25q0 -41 -39 -41q-27 0 -27 25z" />
<glyph unicode="&#xe5;" horiz-adv-x="995" d="M141 319q0 175 68 321t188.5 231t268.5 85q87 0 159 -32t119 -84l14 88q4 18 21 18q9 0 13.5 -5t2.5 -13l-164 -926q-4 -18 -22 -18q-7 0 -11.5 5t-2.5 13l51 268q-17 -48 -51 -97.5t-83 -95.5t-117 -75t-142 -29q-157 0 -234.5 93.5t-77.5 252.5zM178 319 q0 -148 68 -230.5t213 -82.5t266.5 131t153.5 324l57 344q-106 119 -270 119q-138 0 -250 -81t-175 -219.5t-63 -304.5zM532 1188q0 108 60.5 171.5t183.5 63.5q85 0 129.5 -40.5t44.5 -112.5q0 -109 -58.5 -172.5t-184.5 -63.5q-87 0 -131 40.5t-44 113.5zM565 1192 q0 -127 148 -127q205 0 205 201q0 127 -148 127q-106 0 -155.5 -55t-49.5 -146z" />
<glyph unicode="&#xe6;" horiz-adv-x="1665" d="M141 319q0 175 68 321t188.5 231t268.5 85q210 0 350 -161q136 163 362 163q125 0 209 -55.5t84 -154.5q0 -306 -764 -306q-12 -66 -12 -127q0 -309 301 -309q75 0 141.5 17.5t101.5 35.5t79 47q14 9 16 9q6 0 11 -5t5 -12q0 -9 -10 -16q-45 -30 -78 -48.5t-109.5 -39.5 t-162.5 -21q-155 0 -241 81.5t-89 238.5q-16 -48 -49 -100t-82.5 -103t-122 -84t-153.5 -33q-157 0 -234.5 93.5t-77.5 252.5zM178 319q0 -148 68 -230.5t213 -82.5q132 0 245.5 110t159.5 279q20 225 131 373q-51 63 -136 109.5t-193 46.5q-138 0 -250 -81t-175 -219.5 t-63 -304.5zM911 473q109 0 206 7t194.5 26t167.5 48.5t113.5 78.5t43.5 112q0 89 -76.5 135t-187.5 46q-181 0 -302.5 -121.5t-158.5 -331.5z" />
<glyph unicode="&#xe7;" horiz-adv-x="907" d="M160 309q0 192 56 336.5t172.5 228.5t281.5 84q179 0 268 -110q6 -9 6 -14q0 -6 -4.5 -11.5t-11.5 -5.5t-13 6q-42 49 -98 76t-153 27q-220 0 -343.5 -166.5t-123.5 -444.5q0 -157 76 -233t229 -76q144 0 297 103q9 6 16 6q6 0 10 -5.5t4 -11.5q0 -9 -8 -14 q-152 -111 -325 -111q-23 0 -33 2l-29 -114q31 10 64 10q68 0 103.5 -32t35.5 -93q0 -90 -51.5 -145.5t-161.5 -55.5q-35 0 -69 13.5t-46 25.5q-4 4 -4 10q0 15 14 15q6 0 15 -6q37 -29 94 -29q91 0 134.5 45t43.5 121q0 54 -32.5 79t-79.5 25q-24 0 -48 -5t-26 -5 q-17 0 -14 19l28 124q-134 14 -204 98t-70 234z" />
<glyph unicode="&#xe8;" horiz-adv-x="964" d="M160 307q0 94 17.5 183.5t58 175.5t99 150t147 103t196.5 39q125 0 209 -55.5t84 -154.5q0 -306 -764 -306q-12 -66 -12 -127q0 -309 301 -309q75 0 141.5 17.5t101 35.5t78.5 47q13 9 17 9q6 0 11 -5t5 -12q0 -9 -10 -16q-33 -22 -56.5 -35.5t-69 -33.5t-102.5 -30 t-123 -10q-158 0 -243.5 84.5t-85.5 249.5zM211 473q109 0 206 7t194.5 26t167.5 48.5t113.5 78.5t43.5 112q0 89 -76.5 135t-187.5 46q-181 0 -302.5 -121.5t-158.5 -331.5zM590 1309q-15 19 4 32q20 14 31 -4l163 -243q8 -12 -4 -21q-11 -8 -18 2z" />
<glyph unicode="&#xe9;" horiz-adv-x="964" d="M160 307q0 94 17.5 183.5t58 175.5t99 150t147 103t196.5 39q125 0 209 -55.5t84 -154.5q0 -306 -764 -306q-12 -66 -12 -127q0 -309 301 -309q75 0 141.5 17.5t101 35.5t78.5 47q13 9 17 9q6 0 11 -5t5 -12q0 -9 -10 -16q-33 -22 -56.5 -35.5t-69 -33.5t-102.5 -30 t-123 -10q-158 0 -243.5 84.5t-85.5 249.5zM211 473q109 0 206 7t194.5 26t167.5 48.5t113.5 78.5t43.5 112q0 89 -76.5 135t-187.5 46q-181 0 -302.5 -121.5t-158.5 -331.5zM610 1073q-10 9 2 21l248 245q20 20 35 2q15 -17 -6 -34l-258 -232q-11 -11 -21 -2z" />
<glyph unicode="&#xea;" horiz-adv-x="964" d="M160 307q0 94 17.5 183.5t58 175.5t99 150t147 103t196.5 39q125 0 209 -55.5t84 -154.5q0 -306 -764 -306q-12 -66 -12 -127q0 -309 301 -309q75 0 141.5 17.5t101 35.5t78.5 47q13 9 17 9q6 0 11 -5t5 -12q0 -9 -10 -16q-33 -22 -56.5 -35.5t-69 -33.5t-102.5 -30 t-123 -10q-158 0 -243.5 84.5t-85.5 249.5zM211 473q109 0 206 7t194.5 26t167.5 48.5t113.5 78.5t43.5 112q0 89 -76.5 135t-187.5 46q-181 0 -302.5 -121.5t-158.5 -331.5zM483 1141q0 10 13 18l237 164q11 8 19 8q7 0 18 -8l178 -168q6 -6 6 -12t-5 -11.5t-11 -5.5 q-5 0 -12 7l-176 163l-236 -163q-11 -7 -14 -7q-6 0 -11.5 4.5t-5.5 10.5z" />
<glyph unicode="&#xeb;" horiz-adv-x="964" d="M160 307q0 94 17.5 183.5t58 175.5t99 150t147 103t196.5 39q125 0 209 -55.5t84 -154.5q0 -306 -764 -306q-12 -66 -12 -127q0 -309 301 -309q75 0 141.5 17.5t101 35.5t78.5 47q13 9 17 9q6 0 11 -5t5 -12q0 -9 -10 -16q-33 -22 -56.5 -35.5t-69 -33.5t-102.5 -30 t-123 -10q-158 0 -243.5 84.5t-85.5 249.5zM211 473q109 0 206 7t194.5 26t167.5 48.5t113.5 78.5t43.5 112q0 89 -76.5 135t-187.5 46q-181 0 -302.5 -121.5t-158.5 -331.5zM555 1153q0 41 39 41q27 0 27 -25q0 -41 -39 -41q-27 0 -27 25zM805 1153q0 41 39 41q26 0 26 -25 q0 -41 -39 -41q-26 0 -26 25z" />
<glyph unicode="&#xec;" horiz-adv-x="364" d="M164 2l164 926q4 18 20 18q8 0 13 -5.5t4 -12.5l-164 -926q-4 -18 -23 -18q-7 0 -11.5 5t-2.5 13zM233 1309q-14 18 5 32t30 -4l164 -243q8 -12 -4 -21q-11 -8 -18 2z" />
<glyph unicode="&#xed;" horiz-adv-x="364" d="M164 2l164 926q4 18 20 18q8 0 13 -5.5t4 -12.5l-164 -926q-4 -18 -23 -18q-7 0 -11.5 5t-2.5 13zM324 1073q-10 9 2 21l247 245q20 20 35 2q15 -17 -6 -34l-258 -232q-11 -11 -20 -2z" />
<glyph unicode="&#xee;" horiz-adv-x="364" d="M145 1141q0 10 13 18l237 164q11 8 19 8q7 0 18 -8l178 -168q6 -6 6 -12t-5 -11.5t-11 -5.5q-5 0 -12 7l-176 163l-236 -163q-10 -7 -14 -7q-6 0 -11.5 4.5t-5.5 10.5zM164 2l164 926q4 18 20 18q8 0 13 -5.5t4 -12.5l-164 -926q-4 -18 -23 -18q-7 0 -11.5 5t-2.5 13z " />
<glyph unicode="&#xef;" horiz-adv-x="364" d="M164 2l164 926q4 18 20 18q8 0 13 -5.5t4 -12.5l-164 -926q-4 -18 -23 -18q-7 0 -11.5 5t-2.5 13zM227 1153q0 41 39 41q27 0 27 -25q0 -41 -39 -41q-27 0 -27 25zM477 1153q0 41 39 41q27 0 27 -25q0 -41 -39 -41q-27 0 -27 25z" />
<glyph unicode="&#xf0;" horiz-adv-x="1005" d="M160 309q0 94 16.5 183t55 174.5t96.5 149.5t147 103t199 39q228 0 303 -151q-10 123 -48.5 238.5t-90.5 185.5l-176 -103l-13 -4q-6 0 -10 5.5t-4 11.5q0 10 12 16l172 98q-70 100 -203 172q-8 5 -8 15q0 16 17 16q6 0 14 -4q55 -31 112 -80t97 -100l143 84q8 4 15 4 q12 0 12 -12q0 -13 -14 -21l-138 -80q37 -62 59 -109t45 -121t34 -171t12 -225q0 -77 -12 -152t-37 -149t-66.5 -136.5t-97 -110.5t-133.5 -75t-170 -27q-166 0 -253 83.5t-87 252.5zM197 315q0 -309 309 -309q96 0 175.5 34.5t134 93.5t92 137.5t54.5 165.5t17 179 q0 310 -311 310q-96 0 -175.5 -35t-133.5 -93.5t-91 -137.5t-54 -165.5t-17 -179.5z" />
<glyph unicode="&#xf1;" horiz-adv-x="1024" d="M164 2l164 926q4 18 22 18q8 0 12 -5.5t3 -12.5l-33 -185q39 86 135 150.5t233 64.5q157 0 227 -68t70 -183q0 -41 -12 -111l-104 -594q-4 -18 -23 -18q-17 0 -14 18l104 594q13 72 13 106q0 222 -267 222q-157 0 -261 -95t-126 -223l-106 -604q-4 -18 -23 -18 q-17 0 -14 18zM453 1130q0 6 6 15q59 88 155 88q52 0 125 -43t123 -43q71 0 119 70q11 16 20 16q6 0 11.5 -5t5.5 -11t-6 -15q-59 -88 -156 -88q-48 0 -89 21.5t-80 43t-79 21.5q-39 0 -65.5 -17t-53.5 -53q-11 -16 -20 -16q-6 0 -11 5t-5 11z" />
<glyph unicode="&#xf2;" horiz-adv-x="999" d="M160 309q0 94 16 182.5t54.5 174.5t95 150t145.5 103t199 39q336 0 336 -335q0 -66 -8 -130t-26.5 -129.5t-46 -122t-69 -106.5t-92.5 -85.5t-120 -56t-148 -20.5q-336 0 -336 336zM197 315q0 -309 305 -309q96 0 175 34.5t132.5 93t90 137.5t53 165.5t16.5 179.5 q0 310 -305 310q-96 0 -175 -35t-132.5 -93.5t-90 -137.5t-53 -165.5t-16.5 -179.5zM616 1309q-14 18 5 32t30 -4l164 -243q8 -12 -4 -21q-11 -8 -18 2z" />
<glyph unicode="&#xf3;" horiz-adv-x="999" d="M160 309q0 94 16 182.5t54.5 174.5t95 150t145.5 103t199 39q336 0 336 -335q0 -66 -8 -130t-26.5 -129.5t-46 -122t-69 -106.5t-92.5 -85.5t-120 -56t-148 -20.5q-336 0 -336 336zM197 315q0 -309 305 -309q96 0 175 34.5t132.5 93t90 137.5t53 165.5t16.5 179.5 q0 310 -305 310q-96 0 -175 -35t-132.5 -93.5t-90 -137.5t-53 -165.5t-16.5 -179.5zM625 1073q-9 9 2 21l247 245q20 20 35 2q15 -17 -6 -34l-258 -232q-11 -11 -20 -2z" />
<glyph unicode="&#xf4;" horiz-adv-x="999" d="M160 309q0 94 16 182.5t54.5 174.5t95 150t145.5 103t199 39q336 0 336 -335q0 -66 -8 -130t-26.5 -129.5t-46 -122t-69 -106.5t-92.5 -85.5t-120 -56t-148 -20.5q-336 0 -336 336zM197 315q0 -309 305 -309q96 0 175 34.5t132.5 93t90 137.5t53 165.5t16.5 179.5 q0 310 -305 310q-96 0 -175 -35t-132.5 -93.5t-90 -137.5t-53 -165.5t-16.5 -179.5zM467 1141q0 11 12 18l238 164q11 8 18 8q8 0 19 -8l178 -168q6 -6 6 -12t-5 -11.5t-11 -5.5t-13 7l-176 163l-235 -163q-10 -7 -15 -7q-6 0 -11 4.5t-5 10.5z" />
<glyph unicode="&#xf5;" horiz-adv-x="999" d="M160 309q0 94 16 182.5t54.5 174.5t95 150t145.5 103t199 39q336 0 336 -335q0 -66 -8 -130t-26.5 -129.5t-46 -122t-69 -106.5t-92.5 -85.5t-120 -56t-148 -20.5q-336 0 -336 336zM197 315q0 -309 305 -309q96 0 175 34.5t132.5 93t90 137.5t53 165.5t16.5 179.5 q0 310 -305 310q-96 0 -175 -35t-132.5 -93.5t-90 -137.5t-53 -165.5t-16.5 -179.5zM428 1130q0 6 6 15q59 88 156 88q52 0 125 -43t123 -43q70 0 118 70q11 16 21 16q6 0 11 -5t5 -11t-6 -15q-59 -88 -156 -88q-47 0 -88.5 21.5t-80 43t-78.5 21.5q-39 0 -65.5 -17 t-53.5 -53q-11 -16 -21 -16q-6 0 -11 5t-5 11z" />
<glyph unicode="&#xf6;" horiz-adv-x="999" d="M160 309q0 94 16 182.5t54.5 174.5t95 150t145.5 103t199 39q336 0 336 -335q0 -66 -8 -130t-26.5 -129.5t-46 -122t-69 -106.5t-92.5 -85.5t-120 -56t-148 -20.5q-336 0 -336 336zM197 315q0 -309 305 -309q96 0 175 34.5t132.5 93t90 137.5t53 165.5t16.5 179.5 q0 310 -305 310q-96 0 -175 -35t-132.5 -93.5t-90 -137.5t-53 -165.5t-16.5 -179.5zM547 1153q0 41 39 41q26 0 26 -25q0 -41 -39 -41q-26 0 -26 25zM797 1153q0 41 39 41q26 0 26 -25q0 -41 -39 -41q-26 0 -26 25z" />
<glyph unicode="&#xf7;" horiz-adv-x="909" d="M78 444q0 7 6 13t14 6h877q12 0 12 -14q0 -6 -5.5 -12.5t-12.5 -6.5h-877q-14 0 -14 14zM451 190q0 17 14 30t31 13q13 0 21.5 -9.5t8.5 -22.5q0 -17 -14 -30t-31 -13q-13 0 -21.5 9t-8.5 23zM539 690q0 18 13.5 30.5t31.5 12.5q13 0 21.5 -9.5t8.5 -21.5 q0 -18 -13.5 -30.5t-31.5 -12.5q-13 0 -21.5 9.5t-8.5 21.5z" />
<glyph unicode="&#xf8;" horiz-adv-x="999" d="M63 8q0 8 7 15l123 110q-33 67 -33 176q0 94 16 182.5t54.5 174.5t95 150t145.5 103t199 39q213 0 291 -135l124 113q6 6 15 6q8 0 13 -5t5 -13q0 -9 -6 -15l-135 -121q29 -76 29 -165q0 -66 -8 -130t-26.5 -129.5t-46 -122t-69 -106.5t-92.5 -85.5t-120 -56t-148 -20.5 q-206 0 -285 125l-115 -102q-6 -6 -14 -6t-13.5 5.5t-5.5 12.5zM197 315q0 -93 26 -155l707 637q-68 129 -266 129q-96 0 -175 -35t-132.5 -93.5t-90 -137.5t-53 -165.5t-16.5 -179.5zM240 125q70 -119 262 -119q96 0 175 34.5t132.5 93t90 137.5t53 165.5t16.5 179.5 q0 77 -23 144z" />
<glyph unicode="&#xf9;" horiz-adv-x="1003" d="M193 233q0 45 10 103l102 592q4 18 23 18q7 0 11.5 -5t2.5 -13l-104 -611q-9 -52 -9 -81q0 -228 275 -228q323 0 377 309l106 611q4 18 23 18q7 0 11.5 -5t2.5 -13l-104 -592q-11 -61 -27.5 -110.5t-48.5 -98t-76.5 -81.5t-113.5 -53t-156 -20q-305 0 -305 260zM602 1309 q-15 19 4 32q20 14 31 -4l164 -243q8 -12 -4 -21t-19 2z" />
<glyph unicode="&#xfa;" horiz-adv-x="1003" d="M193 233q0 45 10 103l102 592q4 18 23 18q7 0 11.5 -5t2.5 -13l-104 -611q-9 -52 -9 -81q0 -228 275 -228q323 0 377 309l106 611q4 18 23 18q7 0 11.5 -5t2.5 -13l-104 -592q-11 -61 -27.5 -110.5t-48.5 -98t-76.5 -81.5t-113.5 -53t-156 -20q-305 0 -305 260zM627 1073 q-9 9 2 21l248 245q19 19 34 2t-6 -34l-258 -232q-11 -11 -20 -2z" />
<glyph unicode="&#xfb;" horiz-adv-x="1003" d="M193 233q0 45 10 103l102 592q4 18 23 18q7 0 11.5 -5t2.5 -13l-104 -611q-9 -52 -9 -81q0 -228 275 -228q323 0 377 309l106 611q4 18 23 18q7 0 11.5 -5t2.5 -13l-104 -592q-11 -61 -27.5 -110.5t-48.5 -98t-76.5 -81.5t-113.5 -53t-156 -20q-305 0 -305 260zM483 1141 q0 10 13 18l237 164q11 8 19 8q7 0 18 -8l178 -168q6 -6 6 -12t-5 -11.5t-11 -5.5q-5 0 -12 7l-176 163l-236 -163q-11 -7 -14 -7q-6 0 -11.5 4.5t-5.5 10.5z" />
<glyph unicode="&#xfc;" horiz-adv-x="1003" d="M193 233q0 45 10 103l102 592q4 18 23 18q7 0 11.5 -5t2.5 -13l-104 -611q-9 -52 -9 -81q0 -228 275 -228q323 0 377 309l106 611q4 18 23 18q7 0 11.5 -5t2.5 -13l-104 -592q-11 -61 -27.5 -110.5t-48.5 -98t-76.5 -81.5t-113.5 -53t-156 -20q-305 0 -305 260zM557 1153 q0 41 39 41q27 0 27 -25q0 -41 -39 -41q-27 0 -27 25zM807 1153q0 41 39 41q26 0 26 -25q0 -41 -38 -41q-27 0 -27 25z" />
<glyph unicode="&#xfd;" horiz-adv-x="1001" d="M135 -236q0 49 22 89.5t53 67.5t87.5 55t101 44.5t120 43.5t120.5 45q-66 -17 -123 -17q-305 0 -305 260q0 45 10 103l84 473q4 18 23 18q7 0 11.5 -5t2.5 -13l-86 -492q-8 -46 -8 -82q0 -111 63 -169t211 -58q323 0 377 309l88 492q4 18 23 18q7 0 11.5 -5t2.5 -13 l-170 -953q-24 -133 -92 -221.5t-164 -127t-221 -38.5q-119 0 -180.5 47t-61.5 129zM174 -227q0 -152 213 -152q167 0 281.5 87t146.5 267l51 281q-26 -48 -78.5 -89t-114.5 -69.5t-132 -55.5t-134.5 -53.5t-117 -55.5t-84 -70t-31.5 -90zM602 1073q-10 9 2 21l248 245 q20 20 35 2q15 -17 -6 -34l-258 -232q-11 -11 -21 -2z" />
<glyph unicode="&#xfe;" horiz-adv-x="1034" d="M94 -393l324 1833q4 18 22 18q8 0 12 -5.5t3 -12.5l-129 -725q117 243 391 243q159 0 241 -85.5t82 -241.5q0 -76 -11 -150.5t-34.5 -150t-63.5 -139t-92.5 -113t-128 -77.5t-165.5 -28q-60 0 -109 14t-79.5 36.5t-53.5 50t-34 55t-18 50t-8 36.5l-1 14l-111 -622 q-4 -19 -20 -19q-8 0 -13 6t-4 13zM268 322q0 -155 71 -235.5t210 -80.5q113 0 202 54.5t142 144t80.5 195.5t27.5 218q0 308 -288 308q-94 0 -171 -37.5t-127 -98t-84 -141t-48.5 -162.5t-14.5 -165z" />
<glyph unicode="&#xff;" horiz-adv-x="1001" d="M135 -236q0 49 22 89.5t53 67.5t87.5 55t101 44.5t120 43.5t120.5 45q-66 -17 -123 -17q-305 0 -305 260q0 45 10 103l84 473q4 18 23 18q7 0 11.5 -5t2.5 -13l-86 -492q-8 -46 -8 -82q0 -111 63 -169t211 -58q323 0 377 309l88 492q4 18 23 18q7 0 11.5 -5t2.5 -13 l-170 -953q-24 -133 -92 -221.5t-164 -127t-221 -38.5q-119 0 -180.5 47t-61.5 129zM174 -227q0 -152 213 -152q167 0 281.5 87t146.5 267l51 281q-26 -48 -78.5 -89t-114.5 -69.5t-132 -55.5t-134.5 -53.5t-117 -55.5t-84 -70t-31.5 -90zM553 1153q0 41 39 41q26 0 26 -25 q0 -41 -38 -41q-27 0 -27 25zM803 1153q0 41 39 41q26 0 26 -25q0 -41 -39 -41q-26 0 -26 25z" />
<glyph unicode="&#x152;" horiz-adv-x="1923" d="M199 473q0 138 26 268t85 252t145.5 213t217 146t290.5 55q215 0 346 -96l8 49q4 18 20 18h701q14 0 14 -14q0 -6 -6 -12t-14 -6h-680l-113 -635h535q14 0 14 -15q0 -7 -5.5 -12.5t-13.5 -5.5h-534l-115 -645h705q14 0 14 -15q0 -6 -5.5 -12t-14.5 -6h-725q-17 0 -13 18 l9 52q-160 -99 -379 -99q-251 0 -381.5 126t-130.5 376zM236 481q0 -477 481 -477q222 0 381 109l202 1155q-121 106 -344 106q-146 0 -267 -49.5t-204 -134t-140 -199.5t-83 -243t-26 -267z" />
<glyph unicode="&#x153;" horiz-adv-x="1748" d="M160 309q0 94 16 182.5t54.5 174.5t95 150t145.5 103t199 39q328 0 331 -333q58 151 173 242t288 91q125 0 209 -55.5t84 -154.5q0 -306 -764 -306q-12 -66 -12 -127q0 -309 301 -309q75 0 141.5 17.5t101.5 35.5t79 47q14 9 16 9q6 0 11 -5t5 -12q0 -9 -10 -16 q-45 -30 -78 -48.5t-109.5 -39.5t-162.5 -21q-155 0 -240.5 80t-89.5 238q-57 -145 -167.5 -231.5t-280.5 -86.5q-336 0 -336 336zM197 315q0 -309 305 -309q96 0 175 34.5t132.5 93t90 137.5t53 165.5t16.5 179.5q0 310 -305 310q-96 0 -175 -35t-132.5 -93.5t-90 -137.5 t-53 -165.5t-16.5 -179.5zM995 473q109 0 206 7t194.5 26t167.5 48.5t113.5 78.5t43.5 112q0 89 -76.5 135t-187.5 46q-181 0 -302.5 -121.5t-158.5 -331.5z" />
<glyph unicode="&#x178;" d="M299 1376q0 8 5.5 13.5t12.5 5.5q10 0 17 -11l309 -679l545 677q9 13 18 13q8 0 13.5 -5.5t5.5 -13.5t-6 -14l-564 -696l-116 -664q-4 -18 -23 -18q-7 0 -11.5 5t-2.5 13l116 664l-317 702q-2 4 -2 8zM637 1556q0 41 39 41q26 0 26 -24q0 -41 -38 -41q-27 0 -27 24z M887 1556q0 41 39 41q26 0 26 -24q0 -41 -39 -41q-26 0 -26 24z" />
<glyph unicode="&#x2c6;" horiz-adv-x="684" d="M307 1141q0 11 12 18l238 164q11 8 18 8q8 0 19 -8l178 -168q6 -6 6 -12t-5 -11.5t-11 -5.5q-5 0 -12 7l-177 163l-235 -163q-11 -7 -14 -7q-6 0 -11.5 4.5t-5.5 10.5z" />
<glyph unicode="&#x2dc;" horiz-adv-x="774" d="M311 1130q0 6 6 15q59 88 156 88q43 0 84.5 -21.5t81.5 -43t82 -21.5q71 0 119 70q11 16 20 16q6 0 11.5 -5t5.5 -11q0 -5 -7 -15q-59 -88 -155 -88q-47 0 -88.5 21.5t-80.5 43t-79 21.5q-39 0 -65.5 -17t-53.5 -53q-11 -16 -20 -16q-6 0 -11.5 5t-5.5 11z" />
<glyph unicode="&#x2000;" horiz-adv-x="917" />
<glyph unicode="&#x2001;" horiz-adv-x="1835" />
<glyph unicode="&#x2002;" horiz-adv-x="917" />
<glyph unicode="&#x2003;" horiz-adv-x="1835" />
<glyph unicode="&#x2004;" horiz-adv-x="611" />
<glyph unicode="&#x2005;" horiz-adv-x="458" />
<glyph unicode="&#x2006;" horiz-adv-x="305" />
<glyph unicode="&#x2007;" horiz-adv-x="305" />
<glyph unicode="&#x2008;" horiz-adv-x="229" />
<glyph unicode="&#x2009;" horiz-adv-x="367" />
<glyph unicode="&#x200a;" horiz-adv-x="101" />
<glyph unicode="&#x2010;" horiz-adv-x="577" d="M174 514q0 6 6 12t15 6h374q13 0 13 -14q0 -6 -6 -12t-13 -6h-375q-14 0 -14 14z" />
<glyph unicode="&#x2011;" horiz-adv-x="577" d="M174 514q0 6 6 12t15 6h374q13 0 13 -14q0 -6 -6 -12t-13 -6h-375q-14 0 -14 14z" />
<glyph unicode="&#x2012;" horiz-adv-x="577" d="M174 514q0 6 6 12t15 6h374q13 0 13 -14q0 -6 -6 -12t-13 -6h-375q-14 0 -14 14z" />
<glyph unicode="&#x2013;" horiz-adv-x="1196" d="M324 575q0 7 6 13t14 6h721q12 0 12 -14q0 -6 -5.5 -12.5t-12.5 -6.5h-721q-14 0 -14 14z" />
<glyph unicode="&#x2014;" horiz-adv-x="1880" d="M324 575q0 7 6 13t14 6h1405q12 0 12 -14q0 -6 -5.5 -12.5t-12.5 -6.5h-1405q-14 0 -14 14z" />
<glyph unicode="&#x2018;" horiz-adv-x="280" d="M313 1153q0 42 29.5 115.5t67.5 117.5q9 9 14 9q4 0 8 -4t4 -9t-6 -14q-51 -76 -51 -131q0 -16 3 -37t3 -29q0 -55 -43 -55q-29 0 -29 37z" />
<glyph unicode="&#x2019;" horiz-adv-x="280" d="M307 1128q0 6 6 15q52 77 52 131q0 16 -3.5 36.5t-3.5 28.5q0 56 43 56q29 0 29 -37q0 -42 -29 -116t-67 -118q-8 -8 -15 -8q-5 0 -8.5 4t-3.5 8z" />
<glyph unicode="&#x201a;" horiz-adv-x="288" d="M82 -186q0 5 6 14q51 76 51 131q0 16 -3 37t-3 29q0 55 43 55q29 0 29 -37q0 -42 -29 -115.5t-67 -117.5q-9 -9 -15 -9q-4 0 -8 4t-4 9z" />
<glyph unicode="&#x201c;" horiz-adv-x="479" d="M313 1153q0 42 29.5 115.5t67.5 117.5q9 9 14 9q4 0 8 -4t4 -9t-6 -14q-51 -76 -51 -131q0 -16 3 -37t3 -29q0 -55 -43 -55q-29 0 -29 37zM492 1153q0 42 29 115.5t67 117.5q9 9 14 9q4 0 8 -4t4 -9t-6 -14q-51 -76 -51 -131q0 -16 3 -37t3 -29q0 -55 -43 -55 q-28 0 -28 37z" />
<glyph unicode="&#x201d;" horiz-adv-x="479" d="M307 1128q0 6 6 15q52 77 52 131q0 16 -3.5 36.5t-3.5 28.5q0 56 43 56q29 0 29 -37q0 -42 -29 -116t-67 -118q-8 -8 -15 -8q-5 0 -8.5 4t-3.5 8zM485 1128q0 4 7 15q51 76 51 131q0 16 -3 36.5t-3 28.5q0 56 43 56q28 0 28 -37q0 -42 -29 -116t-67 -118q-8 -8 -14 -8 q-5 0 -9 4t-4 8z" />
<glyph unicode="&#x201e;" horiz-adv-x="487" d="M82 -186q0 5 6 14q51 76 51 131q0 16 -3 37t-3 29q0 55 43 55q29 0 29 -37q0 -42 -29 -115.5t-67 -117.5q-9 -9 -15 -9q-4 0 -8 4t-4 9zM260 -186q0 5 6 14q51 76 51 131q0 16 -3 37t-3 29q0 55 43 55q29 0 29 -37q0 -42 -29 -115.5t-67 -117.5q-9 -9 -15 -9q-4 0 -8 4 t-4 9z" />
<glyph unicode="&#x2022;" horiz-adv-x="856" d="M270 571q0 279 267 279q266 0 266 -279q0 -133 -68.5 -199.5t-197.5 -66.5q-130 0 -198.5 66.5t-68.5 199.5z" />
<glyph unicode="&#x202f;" horiz-adv-x="367" />
<glyph unicode="&#x2039;" horiz-adv-x="663" d="M205 432q0 7 12 19l440 423q7 7 13 7q7 0 11.5 -5.5t4.5 -11.5t-10 -16l-434 -418l282 -412q6 -9 6 -14q0 -16 -16 -16q-9 0 -14 8l-287 418q-8 11 -8 18z" />
<glyph unicode="&#x203a;" horiz-adv-x="663" d="M129 4q0 6 10 16l434 418l-282 412q-6 9 -6 14q0 6 4.5 11.5t11.5 5.5q8 0 14 -9l287 -417q8 -11 8 -19q0 -6 -12 -18l-440 -424q-6 -6 -13 -6q-16 0 -16 16z" />
<glyph unicode="&#x205f;" horiz-adv-x="458" />
<glyph unicode="&#x20ac;" horiz-adv-x="1288" d="M111 559q0 7 6 13t14 6h72q5 98 28 204h-65q-14 0 -14 15q0 7 6 12.5t14 5.5h68q74 274 261 433t464 159q144 0 254 -56.5t163 -154.5q2 -4 2 -10q0 -8 -5.5 -13.5t-12.5 -5.5q-10 0 -16 11q-44 88 -148.5 142t-243.5 54q-260 0 -434.5 -151.5t-244.5 -407.5h454 q15 0 15 -14q0 -7 -6 -13t-15 -6h-459q-21 -99 -30 -204h454q13 0 13 -15q0 -6 -6 -12t-13 -6h-450v-64q0 -477 481 -477q137 0 264 55.5t205 143.5q8 8 16 8t13.5 -5.5t5.5 -12.5q0 -8 -7 -15q-210 -207 -503 -207q-250 0 -381 126t-131 376q0 47 2 72h-76q-14 0 -14 14z " />
<glyph unicode="&#x2122;" horiz-adv-x="817" d="M303 1321q0 14 14 14h265q14 0 14 -14t-14 -14h-117v-334q0 -17 -16 -17q-17 0 -17 17v334h-115q-14 0 -14 14zM678 973v352q0 16 16 16q11 0 17 -12l120 -233l121 233q6 12 17 12q16 0 16 -16v-352q0 -7 -5 -12t-11 -5q-15 0 -15 17v295l-102 -197q-7 -14 -21 -14 q-13 0 -20 14l-102 197v-295q0 -17 -15 -17q-6 0 -11 5t-5 12z" />
<glyph unicode="&#x25fc;" horiz-adv-x="942" d="M0 0v942h942v-942h-942z" />
</font>
</defs>
</svg>
